↑↓torrent.by
Поиск
Логин:  Регистрация
Пароль:

Cake - Pressure Chief [24-bit Hi-Res, Deluxe Edition] (2024) FLAC

download Скачать торрент-файл   magnet Магнитная ссылка Размер: 1.52 GB Добавлен: 2024-04-01 17:00
Пиры будут получены из сети DHT
Последний сидер был замечен 2024-04-02 19:56
Название: Pressure Chief (Deluxe Edition) Исполнитель: Cake Год: 2024 Жанр: Rock, Alternative-Rock Издатель (лейбл): Columbia - Legacy Продолжительность: 00:39:47 Формат/Кодек: FLAC Тип рипа: Tracks Битрейт аудио: Lossless Разрядность: 24 Bit/192 kHz
[+] Трек-лист 01. Wheels (00:03:18) 02. No Phone (00:03:52) 03. Take It All Away (00:03:58) 04. Dime (00:03:37) 05. Carbon Monoxide (00:03:10) 06. The Guitar Man (00:03:53) 07. Waiting (00:03:56) 08. She'll Hang The Baskets (00:02:42) 09. End Of The Movie (00:01:50) 10. Palm Of Your Hand (00:02:57) 11. Tougher Than It Is (00:03:00) 12. Wheels (Live At Austin City Limits, Austin, Tx - September 2004) (00:03:34)
[+] DRM foobar2000 1.5.5 / Замер динамического диапазона (DR) 1.1.1 ------------------------------------------------------------------------------- Анализ: Cake / Pressure Chief -------------------------------------------------------------------------------- DR Пики RMS Продолжительность трека -------------------------------------------------------------------------------- DR9 -1.00 дБ -11.02 дБ 3:18 01-Wheels DR9 -1.00 дБ -11.13 дБ 3:52 02-No Phone DR10 -1.00 дБ -11.59 дБ 3:58 03-Take It All Away DR8 -1.00 дБ -10.67 дБ 3:37 04-Dime DR7 -1.00 дБ -9.89 дБ 3:10 05-Carbon Monoxide DR8 -1.00 дБ -11.02 дБ 3:53 06-The Guitar Man DR10 -1.30 дБ -13.10 дБ 3:56 07-Waiting DR10 -1.00 дБ -11.83 дБ 2:42 08-She'll Hang The Baskets DR13 -1.02 дБ -17.33 дБ 1:50 09-End Of The Movie DR10 -1.00 дБ -12.99 дБ 2:57 10-Palm Of Your Hand DR10 -1.00 дБ -11.86 дБ 3:00 11-Tougher Than It Is DR6 -2.50 дБ -9.95 дБ 3:34 12-Wheels (Live At Austin City Limits, Austin, Tx - September 2004) -------------------------------------------------------------------------------- Количество треков: 12 Реальные значения DR: DR9 Частота: 192000 Гц Каналов: 2 Разрядность: 24 Битрейт: 5546 кбит/с Кодек: FLAC ================================================================================
Время раздачи: 24/7 (минимум до появления первых 3-5 скачавших, на раздачи не возвращаюсь) Первое правило участника файлообмена: "Скачал сам - дай скачать другому!"

Всего файлов в раздаче: 13 
01. Wheels.flac127.93 MB
02. No Phone.flac148.75 MB
03. Take It All Away.flac152.52 MB
04. Dime.flac143.87 MB
05. Carbon Monoxide.flac123.62 MB
06. The Guitar Man.flac154.82 MB
07. Waiting.flac153.75 MB
08. She'll Hang The Baskets.flac105.31 MB
09. End Of The Movie.flac66.18 MB
10. Palm Of Your Hand.flac113.87 MB
Показать все файлы

Комментарии


Зарегистрируйтесь чтобы добавить комментарий
Торрент клиент
byTorrent - программа для загрузки торрент-файлов.

Скачать byTorrent.exe (1,5 МБ)

Скачать byTorrent.zip (0,6 МБ)

Поддержи torrent.by
российских рублей
(300 российских рублей это 4$)

Обратная связь rss

End game ©