↑↓torrent.by
Поиск
Логин:  Регистрация
Пароль:

Джейд / Jade (2024) WEB-DLRip-AVC от DoMiNo & селезень | D | Локализованная версия

download Скачать торрент-файл   magnet Магнитная ссылка Размер: 1.37 GB Добавлен: 2024-04-01 17:00
Пиры будут получены из сети DHT
Последний сидер был замечен 2024-04-21 23:17
Информация о фильме Название: Джейд Оригинальное название: Jade Год выхода: 2024 Жанр: Боевик, триллер Режиссер: Джеймс Бэмфорд В ролях: Кэтрин МакНамара, Микки Рурк, Марк Дакаскос, Кит Джардин, Стивен Майкл Кесада, Шейна Уэст, Крис Бруно, Эмили Руравиель, Шон МакНэбб, Дерик Притчард О фильм: Джейд поклялась больше никогда не использовать оружие после того, как она случайно убила своего брата. Но у нее не осталось выбора, поскольку могущественный бизнесмен Торк и лидер местной банды Ортис отправляются на поиски ценного жесткого диска, который может нанести ущерб деятельности Интерпола. Страна: США Студия: Origo Financial Services, Tetrad Studios, Windy Hill Pictures Продолжительность: 01:27:34 Перевод: Дублированный (Мосфильм-Мастер) Субтитры: Русские (Full Al - с моими правками (где заметил)) Файл Формат: Matroska Качество: WEB-DLRip-AVC | Локализованная версия Видео: 1024x428 at 24.000 fps, x264@L4.1, ~1855 kbps Аудио: AC3, 6 ch, ~384 kbps - | Русский | Формат субтитров: softsub (SRT) ***Рип от: -=DoMiNo=-
[+] M/Ix264 : frame I:946 Avg QP:14.10 size: 43794 x264 : frame P:27002 Avg QP:16.22 size: 20347 x264 : frame B:98159 Avg QP:18.36 size: 6377 General Unique ID : 22564416044154954027203126255703794250 (0x10F9BF9AA97975DF0DD2AA0DDD93A24A) Complete name : I:Jade.2024.DUB.WEB-DLRip.x264.seleZen.mkv Format : Matroska Format version : Version 4 File size : 1.37 GiB Duration : 1 h 27 min Overall bit rate : 2 239 kb/s Frame rate : 24.000 FPS Movie name : Jade.2024.DUB.WEB-DLRip.x264.seleZen Encoded date : 2024-04-01 08:32:03 UTC Writing application : mkvmerge v83.0 ('Circle Of Friends') 64-bit Writing library : libebml v1.4.5 + libmatroska v1.7.1 Cover : Yes Attachments : cover.jpg / small_cover.jpg Video ID : 1 Format : AVC Format/Info : Advanced Video Codec Format profile : High@L4.1 Format settings : CABAC / 14 Ref Frames Format settings, CABAC : Yes Format settings, Reference : 14 frames Codec ID : V_MPEG4/ISO/AVC Duration : 1 h 27 min Bit rate : 1 855 kb/s Width : 1 024 pixels Height : 428 pixels Display aspect ratio : 2.40:1 Frame rate mode : Constant Frame rate : 24.000 FPS Color space : YUV Chroma subsampling : 4:2:0 Bit depth : 8 bits Scan type : Progressive Bits/(Pixel*Frame) : 0.176 Stream size : 1.13 GiB (83%) Title : -=DoMiNo=- Writing library : x264 core 164 r3190 -DoMiNo Encoding settings : cabac=1 / ref=14 / deblock=1:-2:-1 / analyse=0x3:0x133 / me=umh / subme=10 / psy=1 / psy_rd=1.00:0.15 / mixed_ref=1 / me_range=32 / chroma_me=1 / trellis=2 / 8x8dct=1 / cqm=0 / deadzone=21,11 / fast_pskip=0 / chroma_qp_offset=-3 / threads=13 / lookahead_threads=2 / sliced_threads=0 / nr=0 / decimate=0 / interlaced=0 / bluray_compat=0 / constrained_intra=0 / bframes=9 / b_pyramid=2 / b_adapt=2 / b_bias=0 / direct=3 / weightb=1 / open_gop=0 / weightp=2 / keyint=240 / keyint_min=24 / scenecut=40 / intra_refresh=0 / rc_lookahead=60 / rc=2pass / mbtree=0 / bitrate=1855 / ratetol=1.0 / qcomp=0.60 / qpmin=0 / qpmax=69 / qpstep=4 / cplxblur=20.0 / qblur=0.5 / vbv_maxrate=50000 / vbv_bufsize=62500 / nal_hrd=none / filler=0 / ip_ratio=1.20 / pb_ratio=1.30 / aq=3:0.90 Language : English Default : Yes Forced : No Color range : Limited Color primaries : BT.709 Transfer characteristics : BT.709 Matrix coefficients : BT.709 Audio ID : 2 Format : AC-3 Format/Info : Audio Coding 3 Commercial name : Dolby Digital Codec ID : A_AC3 Duration : 1 h 27 min Bit rate mode : Constant Bit rate : 384 kb/s Channel(s) : 6 channels Channel layout : L R C LFE Ls Rs Sampling rate : 48.0 kHz Frame rate : 31.250 FPS (1536 SPF) Compression mode : Lossy Stream size : 241 MiB (17%) Title : Дублированный (Мосфильм-Мастер) Language : Russian Service kind : Complete Main Default : Yes Forced : No Text ID : 3 Format : UTF-8 Codec ID : S_TEXT/UTF8 Codec ID/Info : UTF-8 Plain Text Duration : 1 h 25 min Bit rate : 43 b/s Frame rate : 0.122 FPS Count of elements : 621 Stream size : 26.9 KiB (0%) Title : Full Language : Russian Default : No Forced : No Menu 00:00:00.000 : en:Chapter 01 00:05:50.000 : en:Chapter 02 00:11:40.000 : en:Chapter 03 00:17:30.000 : en:Chapter 04 00:23:20.000 : en:Chapter 05 00:29:10.000 : en:Chapter 06 00:35:00.000 : en:Chapter 07 00:40:50.000 : en:Chapter 08 00:46:40.000 : en:Chapter 09 00:52:30.000 : en:Chapter 10 00:58:20.000 : en:Chapter 11 01:04:10.000 : en:Chapter 12 01:10:00.000 : en:Chapter 13 01:15:50.000 : en:Chapter 14 01:21:40.000 : en:Chapter 15 01:27:30.000 : en:Chapter 16
Релиз: Присоединяйся к: Кликай на баннеры.

Всего файлов в раздаче: 1 
Jade.2024.DUB.WEB-DLRip.x264.seleZen.mkv1.37 GB

Похожие раздачи по запросу - Джейд
2024-04-01 magnet Джейд / Jade (2024) WEB-DL 1080p | D | Локализованная версия 3.36 GB ↑ 0 ↓ 0
2024-04-01 magnet Джейд / Jade (2024) WEB-DLRip от ELEKTRI4KA | D 1.46 GB ↑ 0 ↓ 0
2024-03-06 magnet Джейд Картер - Создай свой VPN. Безопасное использование интернета (2024) PDF, RTF, EPUB 9.09 MB ↑ 0 ↓ 0

Комментарии


Зарегистрируйтесь чтобы добавить комментарий
Торрент клиент
byTorrent - программа для загрузки торрент-файлов.

Скачать byTorrent.exe (1,5 МБ)

Скачать byTorrent.zip (0,6 МБ)

Поддержи torrent.by
российских рублей
(300 российских рублей это 4$)

Обратная связь rss

End game ©