↑↓torrent.by
Поиск
Логин:  Регистрация
Пароль:

Воздух [2023, военный, драма, история, WEB-DLRip-AVC]

download Скачать торрент-файл   magnet Магнитная ссылка Размер: 2.18 GB Добавлен: il68k 2024-04-01 23:57
Пиры будут получены из сети DHT
Последний сидер был замечен сегодня в 00:42
Воздух

Страна: Россия Жанр: военный, драма, история Год выпуска: 2023 Продолжительность: 02:31:25 Субтитры: нет Оригинальная аудиодорожка: русский
Режиссер: Алексей Герман мл.
В ролях: Анастасия Талызина, Аглая Тарасова, Кристина Лапшина, Сергей Безруков, Елена Лядова, Олег Гринченко, Антон Шагин, Кристина Исайкина-Бергер, Игорь Митюшкин, Игорь Коровин, олина Дудкина, Петр Логачев, Филипп Дьячков, Анна Исаева, Мария Мельникова, Дарья Шевелько, Маруся Фурина
Описание: Великая Отечественная война. В СССР идут тяжелые бои, немецкая армия наступает. В смешанный авиационный полк прибывает подразделение летчиц. Все они — юные, необстрелянные и сперва не совсем понимают, что такое война. Девушкам приходится трудно в мужском мире, но они день за днем в череде воздушных схваток доказывают, что они не хуже мужчин.

Качество видео: WEB-DLRip-AVC Формат видео: MKV Видео: 1072x448 (2.40:1), 25.000 fps, AVC, ~1608 Kbps, 0.134 bits/pixel Аудио: Russian, 48.0 KHz, AC3, 6 ch, 448 Kbps Релиз от: порошков
[+] MediaInfo
Формат                                   : Matroska
Версия формата                           : Version 4
Размер файла                             : 2,18 Гбайт
Продолжительность                        : 2 ч. 31 м.
Режим общего битрейта                    : Переменный
Общий поток                              : 2 057 Кбит/сек
Частота кадров                           : 25,000 кадров/сек
Название фильма                          : Воздух | Rip by порошков
Дата кодирования                         : 2024-04-01 15:46:54 UTC
Программа кодирования                    : mkvmerge v83.0 ('Circle Of Friends') 64-bit
Библиотека кодирования                   : libebml v1.4.5 + libmatroska v1.7.1

Видео
Идентификатор                            : 1
Формат                                   : AVC
Формат/Информация                        : Advanced Video Codec
Профиль формата                          : High@L4.1
Настройки формата                        : CABAC / 16 Ref Frames
Параметр CABAC формата                   : Да
Параметр RefFrames формата               : 16 кадров
Идентификатор кодека                     : V_MPEG4/ISO/AVC
Продолжительность                        : 2 ч. 31 м.
Вид битрейта                             : Переменный
Битрейт                                  : 1 608 Кбит/сек
Максимальный битрейт                     : 62,5 Мбит/сек
Ширина                                   : 1 072 пикселя
Высота                                   : 448 пикселей
Соотношение сторон                       : 2,39:1
Режим частоты кадров                     : Постоянный
Частота кадров                           : 25,000 кадров/сек
Цветовое пространство                    : YUV
Субдискретизация насыщенности            : 4:2:0
Битовая глубина                          : 8 бит
Тип развёртки                            : Прогрессивная
Бит/(Пиксели*Кадры)                      : 0.134
Размер потока                            : 1,70 Гбайт (78%)
Библиотека кодирования                   : x264 core 164 r3164 c196240
Настройки программы                      : cabac=1 / ref=16 / deblock=1:-1:-1 / analyse=0x3:0x133 / me=umh / subme=10 / psy=1 / psy_rd=1.00:0.15 / mixed_ref=1 / me_range=24 / chroma_me=1 / trellis=2 / 8x8dct=1 / cqm=0 / deadzone=21,11 / fast_pskip=1 / chroma_qp_offset=-3 / threads=16 / lookahead_threads=3 / sliced_threads=0 / nr=0 / decimate=1 / interlaced=0 / bluray_compat=0 / constrained_intra=0 / bframes=16 / b_pyramid=2 / b_adapt=2 / b_bias=0 / direct=3 / weightb=1 / open_gop=0 / weightp=2 / keyint=250 / keyint_min=25 / scenecut=40 / intra_refresh=0 / rc_lookahead=60 / rc=2pass / mbtree=1 / bitrate=1608 / ratetol=1.0 / qcomp=0.60 / qpmin=0 / qpmax=69 / qpstep=4 / cplxblur=20.0 / qblur=0.5 / vbv_maxrate=62500 / vbv_bufsize=50000 / nal_hrd=vbr / filler=0 / ip_ratio=1.40 / aq=1:1.00
Default                                  : Да
Forced                                   : Нет

Аудио
Идентификатор                            : 2
Формат                                   : AC-3
Формат/Информация                        : Audio Coding 3
Коммерческое название                    : Dolby Digital
Идентификатор кодека                     : A_AC3
Продолжительность                        : 2 ч. 31 м.
Вид битрейта                             : Постоянный
Битрейт                                  : 448 Кбит/сек
Каналы                                   : 6 каналов
Channel layout                           : L R C LFE Ls Rs
Частота                                  : 48,0 КГц
Частота кадров                           : 31,250 кадров/сек (1536 SPF)
Метод сжатия                             : С потерями
Размер потока                            : 485 Мбайт (22%)
Язык                                     : Russian
Service kind                             : Complete Main
Default                                  : Да
Forced                                   : Нет
[+] Скриншоты

Всего файлов в раздаче: 1 
Воздух_2023_WEB-DLRip-AVC.mkv2.18 GB

Похожие раздачи по запросу - Воздух
2024-04-06 magnet Воздух (2023) WEB-DLRip-AVC от DoMiNo 745.53 MB ↑ 0 ↓ 1
2024-04-02 magnet Воздух (2023) WEB-DLRip от Generalfilm | КПК 575.90 MB ↑ 0 ↓ 0
2024-04-01 magnet Воздух (2023) WEB-DL 720p от ExKinoRay | КиноПоиск HD 6.11 GB ↑ 0 ↓ 0
2024-04-01 magnet Воздух (2023) WEB-DLRip-AVC от MegaPeer 2.17 GB ↑ 0 ↓ 0
2024-04-01 magnet Воздух (2023) WEB-DLRip от MegaPeer 1.46 GB ↑ 0 ↓ 0
2024-04-01 magnet Воздух (2023) WEB-DL 720p 4.36 GB ↑ 1 ↓ 0
2024-04-01 magnet Воздух (2023) WEB-DLRip от ELEKTRI4KA | КиноПоиск HD 2.19 GB ↑ 0 ↓ 0

Комментарии


Зарегистрируйтесь чтобы добавить комментарий
Торрент клиент
byTorrent - программа для загрузки торрент-файлов.

Скачать byTorrent.exe (1,5 МБ)

Скачать byTorrent.zip (0,6 МБ)

Поддержи torrent.by
российских рублей
(300 российских рублей это 4$)

Обратная связь rss

End game ©