↑↓torrent.by
Поиск
Логин:  Регистрация
Пароль:

Ванильное небо [S01] (2024) WEB-DLRip от Files-x

download Скачать торрент-файл   magnet Магнитная ссылка Размер: 1.30 GB Добавлен: 2024-04-02 05:00
Пиры будут получены из сети DHT
Последний сидер был замечен 2024-04-02 05:00
Информация о фильме Оригинальное название: Ванильное небо Год выхода: 2024 Жанр: Мелодрама, комедия Режиссер: Валентин Донсков В ролях: Анна Воркуева, Михаил Грищенко, Дмитрий Бурукин, Светлана Листова, Василий Мичков, Юлия Яблонская, Ольга Мюнхаузен О фильме: Катя ведёт феминистическую программу "Женщина. Супер" на радиостанции «Ванильное небо». Но рейтинги программы падают из-за оголтелого феминизма Кати. Программный директор радиостанции Кира назначает соведущим Кате "профессионального мачо" – видеоблогера Боба. Откровенно шовинистический настрой Боба шокируют Катю, но рейтинги программы взлетают до небес. Страна: Россия Студия: ООО "АВК продакшн" по заказу ООО "Epic Media" Продолжительность: 4 х 00:23:00 Перевод: Не требуется Файл Кодек: XviD Качество: WEB-DLRip Видео: XviD, ~ 1623 Кбит/с, 720x400, 25 кадр/с Звук: AC3, 2 ch, 192 Кбит/с Субтитры: Русские
[+] Скриншоты
[+] MediaInfo General Complete name : C:01.Ванильное небо.s01.E01.(2024).WEB-DLRip.by.Nicodem.Files-x.avi Format : AVI Format/Info : Audio Video Interleave File size : 300 MiB Duration : 22mn 59s Overall bit rate : 1 824 Kbps Writing application : VirtualDubMod 1.5.10.3 | www.virtualdub-fr.org || (build 2550/release) Writing library : VirtualDubMod build 2550/release Video ID : 0 Format : MPEG-4 Visual Format profile : Advanced Simple@L5 Format settings, BVOP : 1 Format settings, QPel : No Format settings, GMC : No warppoints Format settings, Matrix : Custom Codec ID : XVID Codec ID/Hint : XviD Duration : 22mn 59s Bit rate : 1 623 Kbps Width : 720 pixels Height : 400 pixels Display aspect ratio : 16:9 Frame rate : 25.000 fps Color space : YUV Chroma subsampling : 4:2:0 Bit depth : 8 bits Scan type : Progressive Compression mode : Lossy Bits/(Pixel*Frame) : 0.225 Stream size : 267 MiB (89%) Writing library : XviD 73 Audio ID : 1 Format : AC-3 Format/Info : Audio Coding 3 Mode extension : CM (complete main) Codec ID : 2000 Duration : 22mn 59s Bit rate mode : Constant Bit rate : 192 Kbps Channel(s) : 2 channels Channel positions : Front: L R Sampling rate : 48.0 KHz Bit depth : 16 bits Compression mode : Lossy Stream size : 31.6 MiB (11%) Alignment : Split accross interleaves Interleave, duration : 40 ms (1.00 video frame) Interleave, preload duration : 500 ms
Релиз от:

Всего файлов в раздаче: 8 
01.Ванильное небо.s01.E01.(2024).WEB-DLRip.by.Nicodem.Files-x.avi300.02 MB
01.Ванильное небо.s01.E01.(2024).WEB-DLRip.by.Nicodem.Files-x.srt34.32 kB
02.Ванильное небо.s01.E02.(2024).WEB-DLRip.by.Nicodem.Files-x.avi305.13 MB
02.Ванильное небо.s01.E02.(2024).WEB-DLRip.by.Nicodem.Files-x.srt34.67 kB
03.Ванильное небо.s01.E03.(2024).WEB-DLRip.by.Nicodem.Files-x.avi325.11 MB
03.Ванильное небо.s01.E03.(2024).WEB-DLRip.by.Nicodem.Files-x.srt31.97 kB
04.Ванильное небо.s01.E04.(2024).WEB-DLRip.by.Nicodem.Files-x.avi405.21 MB
04.Ванильное небо.s01.E04.(2024).WEB-DLRip.by.Nicodem.Files-x.srt35.79 kB

Похожие раздачи по запросу - Ванильное
2024-04-01 magnet Ванильное небо [01-04 из 04] (2024) WEB-DL 1080p от ExKinoRay 3.31 GB ↑ 0 ↓ 0
2024-04-01 magnet Ванильное небо [S01] (2024) WEB-DLRip-AVC от Files-x 1.29 GB ↑ 0 ↓ 0

Комментарии


Зарегистрируйтесь чтобы добавить комментарий
Торрент клиент
byTorrent - программа для загрузки торрент-файлов.

Скачать byTorrent.exe (1,5 МБ)

Скачать byTorrent.zip (0,6 МБ)

Поддержи torrent.by
российских рублей
(300 российских рублей это 4$)

Обратная связь rss

End game ©