↑↓torrent.by
Поиск
Логин:  Регистрация
Пароль:

Белая камера / White Chamber (2018) WEB-DL 1080p | P

download Скачать торрент-файл   magnet Магнитная ссылка Размер: 5.09 GB Добавлен: 2024-04-02 05:00
Пиры будут получены из сети DHT
Последний сидер был замечен 2024-04-10 12:18
Информация о фильме Название: Белая камера Оригинальное название: White Chamber Год выпуска: 2018 Жанр: Фантастика, ужасы, триллер, драма Режиссер: Пол Рашид В ролях: Шона МакДональд, Одед Фер, Амрита Ачария, Шэрон Моан, Николас Фэррел, Кэндис Нергаард, Маркус Гриффитс, Адрианна Эдвардс, Сумит Чакраварти, Лиза Рейнольдс, Томас Торо, Мэтт Хантер, Крис Мачари, Гамми Гудмундссон, Уилл Феррис О фильме: События происходят в недалеком будущем в Великобритании. В охваченной гражданской войной стране произошла смена власти и было введено военное положение. Военные заняли ключевые посты и принялись жестко расправляться с оппозицией. Доктор Элль Кристлер приходит в себя в белой комнате, которая в скором времени становится камерой пыток. У сотрудницы секретной лаборатории есть важная информация, но женщина утверждает, что она ничего не знает, однако это не повод прекращать пытки, ведь ее мучения можно использовать для того, чтобы сломить другого пленника. Страна: Великобритания Студия: Aviary Films Продолжительность: 01:29:05 Перевод 1: Профессиональный (многоголосый, закадровый) | Киноужас Перевод 2: Профессиональный (многоголосый, закадровый) | HDRezka Studio Файл Формат: MKV Качество: WEB-DL 1080p Видео: MPEG-4 AVC, 1920x816, 23.976 fps, ~ 6744 Kbps Аудио 1: АС3, 2.0 ch, 48.0 kHz, 192 kbps | MVO, Киноужас Аудио 2: АС3, 5.1 ch, 48.0 kHz, 448 kbps | MVO, HDRezka Studio Аудио 3: E-AC3, 6 ch, 48.0 kHz, 640 kbps | Original Субтитры: Русские (Forced), английские
[+] Скриншоты
[+] Инфо-файлGeneral Unique ID : 243684788190749942462320291060676958144 (0xB753FBA99CA7578AAA395DC0549A17C0) Complete name : White.Chamber.2018.AMZN.WEB-DL.1080p.mkv Format : Matroska Format version : Version 2 File size : 5.09 GiB Duration : 1 h 29 min Overall bit rate : 8 187 kb/s Movie name : Белая камера / White Chamber (2018) Encoded date : UTC 2023-07-01 16:01:05 Writing application : mkvmerge v8.2.0 ('World of Adventure') 64bit Writing library : libebml v1.3.1 + libmatroska v1.4.2 Video ID : 1 Format : AVC Format/Info : Advanced Video Codec Format profile : High@L4 Format settings : CABAC / 4 Ref Frames Format settings, CABAC : Yes Format settings, Reference frames : 4 frames Codec ID : V_MPEG4/ISO/AVC Duration : 1 h 29 min Bit rate mode : Constant Bit rate : 6 744 kb/s Nominal bit rate : 10 000 kb/s Width : 1 920 pixels Height : 816 pixels Display aspect ratio : 2.35:1 Frame rate mode : Constant Frame rate : 23.976 (24000/1001) FPS Color space : YUV Chroma subsampling : 4:2:0 Bit depth : 8 bits Scan type : Progressive Bits/(Pixel*Frame) : 0.180 Stream size : 4.20 GiB (82%) Language : English Default : Yes Forced : No Color range : Limited Color primaries : BT.709 Transfer characteristics : BT.709 Matrix coefficients : BT.709 Audio #1 ID : 2 Format : AC-3 Format/Info : Audio Coding 3 Commercial name : Dolby Digital Codec ID : A_AC3 Duration : 1 h 29 min Bit rate mode : Constant Bit rate : 192 kb/s Channel(s) : 2 channels Channel layout : L R Sampling rate : 48.0 kHz Frame rate : 31.250 FPS (1536 SPF) Compression mode : Lossy Stream size : 122 MiB (2%) Title : MVO, Киноужас Language : Russian Service kind : Complete Main Default : Yes Forced : No Audio #2 ID : 3 Format : AC-3 Format/Info : Audio Coding 3 Commercial name : Dolby Digital Codec ID : A_AC3 Duration : 1 h 29 min Bit rate mode : Constant Bit rate : 448 kb/s Channel(s) : 6 channels Channel layout : L R C LFE Ls Rs Sampling rate : 48.0 kHz Frame rate : 31.250 FPS (1536 SPF) Compression mode : Lossy Stream size : 285 MiB (5%) Title : MVO, HDRezka Studio Language : Russian Service kind : Complete Main Default : No Forced : No Audio #3 ID : 4 Format : E-AC-3 Format/Info : Enhanced AC-3 Commercial name : Dolby Digital Plus Codec ID : A_EAC3 Duration : 1 h 29 min Bit rate mode : Constant Bit rate : 640 kb/s Channel(s) : 6 channels Channel layout : L R C LFE Ls Rs Sampling rate : 48.0 kHz Frame rate : 31.250 FPS (1536 SPF) Compression mode : Lossy Stream size : 408 MiB (8%) Language : English Service kind : Complete Main Default : No Forced : No Text #1 ID : 5 Format : UTF-8 Codec ID : S_TEXT/UTF8 Codec ID/Info : UTF-8 Plain Text Title : Forced Language : Russian Default : No Forced : No Text #2 ID : 6 Format : UTF-8 Codec ID : S_TEXT/UTF8 Codec ID/Info : UTF-8 Plain Text Title : Full Language : English Default : No Forced : No Text #3 ID : 7 Format : UTF-8 Codec ID : S_TEXT/UTF8 Codec ID/Info : UTF-8 Plain Text Title : SDH Language : English Default : No Forced : No

Всего файлов в раздаче: 1 
White.Chamber.2018.AMZN.WEB-DL.1080p.mkv5.09 GB

Похожие раздачи по запросу - Белая
2024-04-07 magnet Белая птица: Новое чудо / Белая птица: История чуда / White Bird (2023) WEB-DLRip-HEVC 1080p от AllHevc 1.63 GB ↑ 0 ↓ 1
2024-04-03 magnet Белая камера / White Chamber (2018) WEB-DLRip от ExKinoRay | P 742.36 MB ↑ 0 ↓ 0
2024-03-28 magnet Белая птица: Новое чудо / Белая птица: История чуда / White Bird (2023) WEB-DLRip-AVC | КПК | D 514.70 MB ↑ 0 ↓ 0
2024-03-26 magnet Белая птица: Новое чудо / История чуда / White Bird (2023) WEB-DLRip от toxics & селезень | D 1.46 GB ↑ 1 ↓ 2
2024-03-25 magnet Белая птица: Новое чудо / Белая птица: История чуда / White Bird (2023) WEB-DLRip-AVC от DoMiNo & селезень | D 1.59 GB ↑ 0 ↓ 0
2024-03-25 magnet Белая птица: Новое чудо / Белая птица: История чуда / White Bird (2023) WEB-DL 1080p от селезень | D 5.49 GB ↑ 1 ↓ 0
2024-03-25 magnet Белая птица: Новое чудо / Белая птица: История чуда / White Bird (2023) WEB-DLRip от MegaPeer | D 1.46 GB ↑ 0 ↓ 0

Комментарии


Зарегистрируйтесь чтобы добавить комментарий
Торрент клиент
byTorrent - программа для загрузки торрент-файлов.

Скачать byTorrent.exe (1,5 МБ)

Скачать byTorrent.zip (0,6 МБ)

Поддержи torrent.by
российских рублей
(300 российских рублей это 4$)

Обратная связь rss

End game ©