↑↓torrent.by
Поиск
Логин:  Регистрация
Пароль:

Сердце охотника / Heart of the Hunter (2024) WEB-DLRip-AVC от DoMiNo & селезень | P2 | ViruseProject

download Скачать торрент-файл   magnet Магнитная ссылка Размер: 1.62 GB Добавлен: 2024-04-02 05:00
Пиры будут получены из сети DHT
Последний сидер был замечен 2024-04-06 23:55
Информация о фильме Название: Сердце охотника Оригинальное название: Heart of the Hunter Год выхода: 2024 Жанр: Боевик, триллер Режиссер: Мандла Дюбэ В ролях: Бонко Хоза, Конни Фергюсон, Питер Батлер, Грант Росс, Тим Терон, Масаса Мбангени, Боленг Моготси, Николь Фортуин, Милан Мюррей, Сисанда Хенна Описание: Тайни Мпайифели, здоровяк с мягким характером, когда-то зарабатывал на жизнь тем, что был наемным убийцей правительства. Теперь он ведет тихую, упорядоченную жизнь в сельской местности, но его с неохотой возвращают в игру, когда похищают старого друга. У него всего семьдесят два часа, чтобы доставить выкуп, армия сил безопасности развернута, чтобы остановить его, а дьявольский двойной агент находится в опасной близости от обретения абсолютной власти, и Тайни мчится на угнанном мотоцикле через дикие земли Африки в захватывающем эпическом приключении. Страна: ЮАР Студия: Scene23 Продолжительность: 01:47:19 Перевод: Профессиональный (двухголосый, закадровый) | ViruseProject Субтитры: Русские (Full), Английские Файл Формат: Matroska Качество: WEB-DLRip-AVC | NF Видео: 1024x426 at 24.000 fps, x264@L4.1, ~1709 kbps Аудио: AC3, 6 ch, ~448 kbps - | Русский | Формат субтитров: softsub (SRT) ***Рип от: -=DoMiNo=-
[+] M/IGeneral Unique ID : 177112659364599834172370371935953310478 (0x853EA84CADE96C960B5FC9B450B5530E) Complete name : I:Heart.Of.The.Hunter.2024.DVO.NF.WEB-DLRip.x264.seleZen.mkv Format : Matroska Format version : Version 4 File size : 1.62 GiB Duration : 1 h 47 min Overall bit rate : 2 159 kb/s Frame rate : 24.000 FPS Movie name : Heart.Of.The.Hunter.2024.DVO.NF.WEB-DLRip.x264.seleZen Encoded date : 2024-04-01 18:25:27 UTC Writing application : mkvmerge v83.0 ('Circle Of Friends') 64-bit Writing library : libebml v1.4.5 + libmatroska v1.7.1 Cover : Yes Attachments : cover.jpg / small_cover.jpg Video ID : 1 Format : AVC Format/Info : Advanced Video Codec Format profile : High@L4.1 Format settings : CABAC / 14 Ref Frames Format settings, CABAC : Yes Format settings, Reference : 14 frames Codec ID : V_MPEG4/ISO/AVC Duration : 1 h 47 min Bit rate : 1 709 kb/s Width : 1 024 pixels Height : 426 pixels Display aspect ratio : 2.40:1 Frame rate mode : Constant Frame rate : 24.000 FPS Color space : YUV Chroma subsampling : 4:2:0 Bit depth : 8 bits Scan type : Progressive Bits/(Pixel*Frame) : 0.163 Stream size : 1.28 GiB (79%) Title : -=DoMiNo=- Writing library : x264 core 164 r3190 -DoMiNo Encoding settings : cabac=1 / ref=14 / deblock=1:-2:-1 / analyse=0x3:0x133 / me=umh / subme=10 / psy=1 / psy_rd=1.00:0.15 / mixed_ref=1 / me_range=32 / chroma_me=1 / trellis=2 / 8x8dct=1 / cqm=0 / deadzone=21,11 / fast_pskip=0 / chroma_qp_offset=-3 / threads=13 / lookahead_threads=3 / sliced_threads=0 / nr=0 / decimate=0 / interlaced=0 / bluray_compat=0 / constrained_intra=0 / bframes=10 / b_pyramid=2 / b_adapt=2 / b_bias=0 / direct=1 / weightb=1 / open_gop=0 / weightp=2 / keyint=240 / keyint_min=24 / scenecut=40 / intra_refresh=0 / rc_lookahead=60 / rc=crf / mbtree=0 / crf=18.0 / qcomp=0.60 / qpmin=0 / qpmax=69 / qpstep=4 / vbv_maxrate=50000 / vbv_bufsize=62500 / crf_max=0.0 / nal_hrd=none / filler=0 / ip_ratio=1.40 / pb_ratio=1.30 / aq=3:0.90 Language : English Default : Yes Forced : No Color range : Limited Color primaries : BT.709 Transfer characteristics : BT.709 Matrix coefficients : BT.709 Audio ID : 2 Format : AC-3 Format/Info : Audio Coding 3 Commercial name : Dolby Digital Codec ID : A_AC3 Duration : 1 h 47 min Bit rate mode : Constant Bit rate : 448 kb/s Channel(s) : 6 channels Channel layout : L R C LFE Ls Rs Sampling rate : 48.0 kHz Frame rate : 31.250 FPS (1536 SPF) Compression mode : Lossy Stream size : 344 MiB (21%) Title : DVO -ViruseProject Language : Russian Service kind : Complete Main Default : Yes Forced : No Text #1 ID : 3 Format : UTF-8 Codec ID : S_TEXT/UTF8 Codec ID/Info : UTF-8 Plain Text Duration : 1 h 44 min Bit rate : 64 b/s Frame rate : 0.182 FPS Count of elements : 1147 Stream size : 49.6 KiB (0%) Title : Full Language : Russian Default : No Forced : No Text #2 ID : 4 Format : UTF-8 Codec ID : S_TEXT/UTF8 Codec ID/Info : UTF-8 Plain Text Duration : 1 h 37 min Bit rate : 45 b/s Frame rate : 0.196 FPS Count of elements : 1146 Stream size : 32.4 KiB (0%) Title : Full Language : English (ZA) Default : No Forced : No Text #3 ID : 5 Format : UTF-8 Codec ID : S_TEXT/UTF8 Codec ID/Info : UTF-8 Plain Text Duration : 1 h 42 min Bit rate : 57 b/s Frame rate : 0.249 FPS Count of elements : 1536 Stream size : 43.3 KiB (0%) Title : SDH Language : English (ZA) Default : No Forced : No Text #4 ID : 6 Format : UTF-8 Codec ID : S_TEXT/UTF8 Codec ID/Info : UTF-8 Plain Text Duration : 1 h 34 min Bit rate : 8 b/s Frame rate : 0.039 FPS Count of elements : 222 Stream size : 5.68 KiB (0%) Title : Forced Language : English (ZA) Default : No Forced : No Menu 00:00:00.000 : en:Chapter 01 00:05:50.000 : en:Chapter 02 00:11:40.000 : en:Chapter 03 00:17:30.000 : en:Chapter 04 00:23:20.000 : en:Chapter 05 00:29:10.000 : en:Chapter 06 00:35:00.000 : en:Chapter 07 00:40:50.000 : en:Chapter 08 00:46:40.000 : en:Chapter 09 00:52:30.000 : en:Chapter 10 00:58:20.000 : en:Chapter 11 01:04:10.000 : en:Chapter 12 01:10:00.000 : en:Chapter 13 01:15:50.000 : en:Chapter 14 01:21:40.000 : en:Chapter 15 01:27:30.000 : en:Chapter 16 01:33:20.000 : en:Chapter 17 01:39:10.000 : en:Chapter 18 01:45:00.000 : en:Chapter 19
Релиз: Присоединяйся к: Кликай на баннеры.

Всего файлов в раздаче: 1 
Heart.Of.The.Hunter.2024.DVO.NF.WEB-DLRip.x264.seleZen.mkv1.62 GB

Похожие раздачи по запросу - Сердце
2024-04-03 magnet Каменное сердце [01-04 из 04] (2016) WEB-DL 1080p 5.18 GB ↑ 0 ↓ 0
2024-04-03 magnet Дикое сердце / Ponyherz / Wild Heart (2023) BDRip 720p от MegaPeer | D 3.66 GB ↑ 0 ↓ 1
2024-04-03 magnet Дикое сердце / Ponyherz / Wild Heart (2023) HDRip-AVC от DoMiNo & селезень | D 1.46 GB ↑ 0 ↓ 0
2024-04-03 magnet Дикое сердце / Ponyherz / Wild Heart (2023) BDRip 1080p от MegaPeer | D 7.83 GB ↑ 0 ↓ 1
2024-04-03 magnet Дикое сердце / Ponyherz / Wild Heart (2023) BDRip от MegaPeer | D 1.46 GB ↑ 0 ↓ 1
2024-04-02 magnet Сердце охотника / Heart of the Hunter (2024) WEB-DLRip от MegaPeer | P2 | ViruseProject 1.46 GB ↑ 1 ↓ 1
2024-03-13 magnet VладимироVа - Сердце Севера (2024) MP3 111.68 MB ↑ 0 ↓ 0

Комментарии


Зарегистрируйтесь чтобы добавить комментарий
Торрент клиент
byTorrent - программа для загрузки торрент-файлов.

Скачать byTorrent.exe (1,5 МБ)

Скачать byTorrent.zip (0,6 МБ)

Поддержи torrent.by
российских рублей
(300 российских рублей это 4$)

Обратная связь rss

End game ©