↑↓torrent.by
Поиск
Логин:  Регистрация
Пароль:

ГДР [S01] (2023) WEBRip-AVC от Generalfilm | КПК

download Скачать торрент-файл   magnet Магнитная ссылка Размер: 2.98 GB Добавлен: 2024-04-02 05:00
Пиры будут получены из сети DHT
Последний сидер был замечен вчера в 17:22
Информация о фильме Оригинальное название: ГДР Год выпуска: 2023 Жанр: Детектив, драма Режиссер: Сергей Попов (II) В ролях: Александр Горбатов (II), Дарья Урсуляк, Линда Лапиньш, Александр Голубев, Евгений Харитонов, Татьяна Лютаева, Кирилл Зайцев, Вадим Андреев, Евгений Кутянин, Геннадий Блинов, Александр Обласов, Виталий Коваленко, Мадлен Джабраилова, Евгений Санников, Юлия Марченко О сериале: СССР, осень 1989 года. Огромная империя трещит по швам, вот-вот этот ледник прорвет плотину из дипломатии и военных союзов и устремится вниз, сметая все на своем пути. Капитан Нечаев вынужден вернуться в строй после провальной спецоперации. В Москве коллега просит Нечаева проследить за артистами берлинского мьюзик-холла, способными передать зашифрованную информацию американскому журналисту. Это несложное задание дает толчок большой истории, которая начнется в Берлине, ГДР, где схлестнутся разведки всего мира. Страна: Россия Студия: Кинокомпания "Всемирные русские студии", НТВ, Wink, НМГ Студии Продолжительность: 14 х ~ 00:53:00 Перевод: Не требуется Файл Формат: MP4 Качество: WEBRip-AVC Видео: MPEG-4 AVC (x264), 640x272, ~ 500 kbps, 25.000 fps Аудио: AAC LC, 48.0 KHz, 2 ch, 128 Kbps Субтитры: Нет
[+] Скриншоты
[+] MIComplete name : D:киноGDR.S01.2023.WEBRip-AVC.KPK.GFGDR.s01e01.2023.WEBRip-AVC.KPK.GF.mp4 Format : MPEG-4 Codec ID : M4V (isom/iso2/avc1) File size : 244 MiB Duration : 53mn 48s Overall bit rate mode : Variable Overall bit rate : 633 Kbps Writing application : Lavf53.19.0 Video ID : 1 Format : AVC Format/Info : Advanced Video Codec Format profile : High@L4.1 Format settings, CABAC : Yes Format settings, ReFrames : 8 frames Codec ID : avc1 Codec ID/Info : Advanced Video Coding Duration : 53mn 48s Bit rate : 500 Kbps Width : 640 pixels Height : 272 pixels Display aspect ratio : 2.35:1 Frame rate mode : Constant Frame rate : 25.000 fps Color space : YUV Chroma subsampling : 4:2:0 Bit depth : 8 bits Scan type : Progressive Bits/(Pixel*Frame) : 0.115 Stream size : 192 MiB (79%) Writing library : x264 core 146 r2538 121396c Encoding settings : cabac=1 / ref=8 / deblock=1:-1:-1 / analyse=0x3:0x133 / me=umh / subme=10 / psy=1 / psy_rd=1.00:0.00 / mixed_ref=1 / me_range=24 / chroma_me=1 / trellis=2 / 8x8dct=1 / cqm=0 / deadzone=21,11 / fast_pskip=1 / chroma_qp_offset=-2 / threads=3 / lookahead_threads=1 / sliced_threads=0 / nr=0 / decimate=1 / interlaced=0 / bluray_compat=0 / constrained_intra=0 / bframes=8 / b_pyramid=2 / b_adapt=2 / b_bias=0 / direct=3 / weightb=1 / open_gop=0 / weightp=2 / keyint=250 / keyint_min=126 / scenecut=40 / intra_refresh=0 / rc_lookahead=40 / rc=2pass / mbtree=1 / bitrate=500 / ratetol=1.0 / qcomp=0.60 / qpmin=0 / qpmax=69 / qpstep=4 / cplxblur=20.0 / qblur=0.5 / ip_ratio=1.40 / aq=1:1.00 Menus : 3 Audio ID : 2 Format : AAC Format/Info : Advanced Audio Codec Format profile : LC Codec ID : 40 Duration : 53mn 48s Bit rate mode : Variable Bit rate : 128 Kbps Channel(s) : 2 channels Channel positions : Front: L R Sampling rate : 48.0 KHz Frame rate : 46.875 fps (1024 spf) Compression mode : Lossy Stream size : 49.1 MiB (20%) Default : Yes Alternate group : 1 Menus : 3
Релиз от:

Всего файлов в раздаче: 14 
GDR.s01e01.2023.WEBRip-AVC.KPK.GF.mp4243.71 MB
GDR.s01e02.2023.WEBRip-AVC.KPK.GF.mp4229.29 MB
GDR.s01e03.2023.WEBRip-AVC.KPK.GF.mp4225.37 MB
GDR.s01e04.2023.WEBRip-AVC.KPK.GF.mp4236.61 MB
GDR.s01e05.2023.WEBRip-AVC.KPK.GF.mp4223.85 MB
GDR.s01e06.2023.WEBRip-AVC.KPK.GF.mp4223.10 MB
GDR.s01e07.2023.WEBRip-AVC.KPK.GF.mp4203.99 MB
GDR.s01e08.2023.WEBRip-AVC.KPK.GF.mp4219.63 MB
GDR.s01e09.2023.WEBRip-AVC.KPK.GF.mp4207.42 MB
GDR.s01e10.2023.WEBRip-AVC.KPK.GF.mp4201.94 MB
Показать все файлы

Похожие раздачи по запросу - ГДР
2024-03-02 magnet ГДР [S01] (2023) WEBRip от Generalfilm | КПК 2.50 GB ↑ 0 ↓ 0

Комментарии


Зарегистрируйтесь чтобы добавить комментарий
Торрент клиент
byTorrent - программа для загрузки торрент-файлов.

Скачать byTorrent.exe (1,5 МБ)

Скачать byTorrent.zip (0,6 МБ)

Поддержи torrent.by
российских рублей
(300 российских рублей это 4$)

Обратная связь rss

End game ©