↑↓torrent.by
Поиск
Логин:  Регистрация
Пароль:

Треугольник аякаси / Треугольник аякаши / Ayakashi Triangle [S01] (2023) BDRip-HEVC 1080p | L

download Скачать торрент-файл   magnet Магнитная ссылка Размер: 4.37 GB Добавлен: 2024-04-02 11:00
Пиры будут получены из сети DHT
Последний сидер был замечен 2024-04-02 23:55
Информация о фильме Название: Треугольник аякаси / Треугольник аякаши Оригинальное название: Ayakashi Triangle Страна: Япония Студия: Connect Продолжительность: 12 x ~00:24:00 Год выхода: 2023 Жанр: Фэнтези, боевик, комедия, романтика, этти Режиссер: Акитая Нориаки Автор оригинала: Ябуки Кэнтаро Описание: Мацури Кадзамаки - молодой экзорцист, наследник своего дедушки. Он сражается со злыми духами-аякаси, которые мешают людям спокойно жить. Но в первую очередь он старается оберегать свою подругу детства Судзу, которая вечно привлекает к себе внимание этих существ. Но однажды, защищая Судзу от особенно неподатливого аякаси, Мацури превращается в девушку. Теперь у него прибавилось проблем, а его главная цель - вернуть прежнее тело. © Crunchyroll Озвучивание: Любительское (многоголосое, закадровое) AniDub Любительское (многоголосое, закадровое) AniMaunt Субтитры: Русские (внешние), английские (встроенные) Файл Кодек: x265 Качество: BDRip-HEVC 1080p | Рип: AniSuki Видео: HEVC/H265, 1920х1080, 23.976 fps, ~1500 kbps, 10 bit Аудио 1: rus, AAC LC, 48.0 khz, 2.0 ch, 192 kbps | AniDub (пер. Crunchyroll) Аудио 2: rus, AAC LC, 44.1 khz, 2.0 ch, ~200 kbps | AniMaunt (пер. Crunchyroll) Аудио 3: jpn, Opus, 48.0 khz, 2.0 ch, ~125 kbps | Original
[+] Скриншоты
[+] MediaInfo General Unique ID : 82880563455029014018441800188831892261 (0x3E5A3744FF6EFAC69D0033389BCE8325) Complete name : 01. Мацури, Судзу и аякаси.mkv Format : Matroska Format version : Version 4 File size : 419 MiB Duration : 23 min 41 s Overall bit rate : 2 472 kb/s Encoded date : UTC 2024-02-12 17:54:05 Writing application : mkvmerge v51.0.0 ('I Wish') 64-bit Writing library : libebml v1.4.0 + libmatroska v1.6.2 Attachments : arial.ttf / arialbd.ttf / comic.ttf / comicbd.ttf / Roboto-Medium.ttf / Roboto-MediumItalic.ttf / times.ttf / timesbd.ttf / trebuc.ttf / trebucbd.ttf / verdana.ttf / verdanab.ttf / ArtificeSSK.ttf / bBeshary.ttf / Chinela Brush.ttf / fading-wornarmychalk-regular.ttf / KozMinPro-Heavy.otf / Kozuka Gothic Pro H.otf / Marker SD.ttf / MarkingPen Regular.ttf / Mirakurun logo Heavy.ttf / Montara-Gothic-NEW.ttf / Nunito-ExtraBold.ttf / SchoolRules.ttf / Thanksgiving.TTF / Vanilla Twilight.otf Video ID : 1 Format : HEVC Format/Info : High Efficiency Video Coding Format profile : Main 10@L4@Main Codec ID : V_MPEGH/ISO/HEVC Duration : 23 min 41 s Bit rate : 1 885 kb/s Width : 1 920 pixels Height : 1 080 pixels Display aspect ratio : 16:9 Frame rate mode : Constant Frame rate : 23.976 (24000/1001) FPS Color space : YUV Chroma subsampling : 4:2:0 (Type 0) Bit depth : 10 bits Bits/(Pixel*Frame) : 0.038 Stream size : 319 MiB (76%) Writing library : x265 3.5+108-a9846fcf1: 10bit Encoding settings : cpuid=1111039 / frame-threads=2 / numa-pools=4 / wpp / no-pmode / no-pme / no-psnr / no-ssim / log-level=2 / input-csp=1 / input-res=1920x1080 / interlace=0 / total-frames=0 / level-idc=0 / high-tier=1 / uhd-bd=0 / ref=3 / no-allow-non-conformance / no-repeat-headers / annexb / no-aud / no-eob / no-eos / no-hrd / info / hash=0 / temporal-layers=0 / open-gop / min-keyint=23 / keyint=250 / gop-lookahead=0 / bframes=4 / b-adapt=2 / b-pyramid / bframe-bias=0 / rc-lookahead=20 / lookahead-slices=6 / scenecut=40 / no-hist-scenecut / radl=0 / no-splice / no-intra-refresh / ctu=64 / min-cu-size=8 / no-rect / no-amp / max-tu-size=32 / tu-inter-depth=1 / tu-intra-depth=1 / limit-tu=0 / rdoq-level=0 / dynamic-rd=0.00 / no-ssim-rd / signhide / no-tskip / nr-intra=0 / nr-inter=0 / no-constrained-intra / strong-intra-smoothing / max-merge=3 / limit-refs=1 / no-limit-modes / me=1 / subme=2 / merange=57 / temporal-mvp / no-frame-dup / no-hme / weightp / no-weightb / no-analyze-src-pics / deblock=0:0 / sao / no-sao-non-deblock / rd=3 / selective-sao=4 / early-skip / rskip / no-fast-intra / no-tskip-fast / no-cu-lossless / b-intra / no-splitrd-skip / rdpenalty=0 / psy-rd=2.00 / psy-rdoq=0.00 / no-rd-refine / no-lossless / cbqpoffs=0 / crqpoffs=0 / rc=crf / crf=20.0 / qcomp=0.60 / qpstep=4 / stats-write=0 / stats-read=0 / ipratio=1.40 / pbratio=1.30 / aq-mode=2 / aq-strength=1.00 / cutree / zone-count=0 / no-strict-cbr / qg-size=32 / no-rc-grain / qpmax=69 / qpmin=0 / no-const-vbv / sar=1 / overscan=0 / videoformat=5 / range=0 / colorprim=2 / transfer=2 / colormatrix=2 / chromaloc=1 / chromaloc-top=0 / chromaloc-bottom=0 / display-window=0 / cll=0,0 / min-luma=0 / max-luma=1023 / log2-max-poc-lsb=8 / vui-timing-info / vui-hrd-info / slices=1 / no-opt-qp-pps / no-opt-ref-list-length-pps / no-multi-pass-opt-rps / scenecut-bias=0.05 / no-opt-cu-delta-qp / no-aq-motion / no-hdr10 / no-hdr10-opt / no-dhdr10-opt / no-idr-recovery-sei / analysis-reuse-level=0 / analysis-save-reuse-level=0 / analysis-load-reuse-level=0 / scale-factor=0 / refine-intra=0 / refine-inter=0 / refine-mv=1 / refine-ctu-distortion=0 / no-limit-sao / ctu-info=0 / no-lowpass-dct / refine-analysis-type=0 / copy-pic=1 / max-ausize-factor=1.0 / no-dynamic-refine / no-single-sei / no-hevc-aq / no-svt / no-field / qp-adaptation-range=1.00 / scenecut-aware-qp=0conformance-window-offsets / right=0 / bottom=0 / decoder-max-rate=0 / no-vbv-live-multi-pass / no-mcstf / no-sbrc Language : Japanese Default : Yes Forced : No Color range : Limited Audio #1 ID : 2 Format : AAC LC Format/Info : Advanced Audio Codec Low Complexity Codec ID : A_AAC-2 Duration : 23 min 40 s Bit rate : 192 kb/s Channel(s) : 2 channels Channel layout : L R Sampling rate : 48.0 kHz Frame rate : 46.875 FPS (1024 SPF) Compression mode : Lossy Delay relative to video : 20 ms Stream size : 32.1 MiB (8%) Title : AniDub (пер. Crunchyroll) Language : Russian Default : Yes Forced : No Audio #2 ID : 3 Format : AAC LC Format/Info : Advanced Audio Codec Low Complexity Codec ID : A_AAC-2 Duration : 23 min 41 s Bit rate : 204 kb/s Channel(s) : 2 channels Channel layout : L R Sampling rate : 44.1 kHz Frame rate : 43.066 FPS (1024 SPF) Compression mode : Lossy Delay relative to video : 10 ms Stream size : 34.5 MiB (8%) Title : AniMaunt (пер. Crunchyroll) Language : Russian Default : No Forced : No Audio #3 ID : 4 Format : Opus Codec ID : A_OPUS Duration : 23 min 41 s Bit rate : 124 kb/s Channel(s) : 2 channels Channel layout : L R Sampling rate : 48.0 kHz Frame rate : 50.000 FPS (960 SPF) Compression mode : Lossy Stream size : 21.0 MiB (5%) Title : Original Language : Japanese Default : No Forced : No Text #1 ID : 5 Format : ASS Codec ID : S_TEXT/ASS Codec ID/Info : Advanced Sub Station Alpha Duration : 23 min 26 s Bit rate : 4 141 b/s Count of elements : 7409 Compression mode : Lossless Stream size : 711 KiB (0%) Title : Chihiro Fansubs Language : English Default : Yes Forced : No Text #2 ID : 6 Format : ASS Codec ID : S_TEXT/ASS Codec ID/Info : Advanced Sub Station Alpha Duration : 23 min 26 s Bit rate : 151 b/s Count of elements : 405 Compression mode : Lossless Stream size : 25.9 KiB (0%) Title : SubsPlease Language : English Default : No Forced : No Menu 00:00:00.000 : en:Prologue 00:01:31.008 : en:Opening 00:03:00.973 : en:Episode 00:23:34.998 : en:Preview
[+] Эпизоды 01. Matsuri, Suzu, and Ayakashi 02. Girl Friend 03. The Speedster Exorcist Ninja 04. The Melancholy of the Ayakashi Medium 05. Omokage 06. Those Who See, and Those Who Can't 07. Utagawa Garaku 08. Her First 09. An Encounter with 'Him'? 10. The Enticing Boy 11. The Spirit of Harmony 12. Kanade Suzu, the King of Ayakashi

Всего файлов в раздаче: 40 
01. Мацури, Судзу и аякаси.Crunchyroll.ass38.85 kB
01. Мацури, Судзу и аякаси.mkv418.80 MB
01. Мацури, Судзу и аякаси.Надписи (Crunchyroll).ass3.40 kB
02. Подруги.Crunchyroll.ass45.63 kB
02. Подруги.mkv347.74 MB
02. Подруги.Надписи (Crunchyroll).ass5.00 kB
03. Скоростной экзорцист.Crunchyroll.ass38.22 kB
03. Скоростной экзорцист.mkv342.28 MB
03. Скоростной экзорцист.Надписи (Crunchyroll).ass4.65 kB
04. Меланхолия жрицы аякаси.Crunchyroll.ass41.26 kB
Показать все файлы

Похожие раздачи по запросу - Треугольник
2024-03-06 magnet Исчезающий треугольник / The Vanishing Triangle [S01] (2023) WEB-DLRip | ViruseProject 3.21 GB ↑ 0 ↓ 0
2024-03-06 magnet Исчезающий треугольник / The Vanishing Triangle [S01] (2023) WEB-DLRip 1080p | ViruseProject 8.86 GB ↑ 0 ↓ 0

Комментарии


Зарегистрируйтесь чтобы добавить комментарий
Торрент клиент
byTorrent - программа для загрузки торрент-файлов.

Скачать byTorrent.exe (1,5 МБ)

Скачать byTorrent.zip (0,6 МБ)

Поддержи torrent.by
российских рублей
(300 российских рублей это 4$)

Обратная связь rss

End game ©