↑↓torrent.by
Поиск
Логин:  Регистрация
Пароль:

Игра / The Game (1997) BDRip от New-Team | D

download Скачать торрент-файл   magnet Магнитная ссылка Размер: 1.09 GB Добавлен: 2024-04-02 11:00
Пиры будут получены из сети DHT
Последний сидер был замечен 2024-04-02 16:36
«Вы готовы играть?» Страна: США Производство: A&B Producoes, Lda., PolyGram Filmed Entertainment, Propaganda Films Жанр: фантастика, боевик, приключения Год выпуска: 1997 Продолжительность: 02:08:43 Перевод: Профессиональный (полное дублирование) DVD-Group Оригинальная аудиодорожка: нет Cубтитры: нет Режиссер: Дэвид Финчер / David Fincher В ролях: Майкл Дуглас, Шон Пенн, Дебора Кара Ангер, Джеймс Ребхорн, Питер Донат, Кэррол Бейкер, Анна Катарина, Армин Мюллер-Шталь, Чарльз Мартине, Юдзи Окумото... Подробнее об актерах Роли дублировали: Владимир Еремин, Всеволод Кузнецов, Ольга Плетнёва, Владимир Антоник, Рогволд Суховерко... Описание: Николас Ван Ортон — само воплощение успеха. Он преуспевает, он невозмутим и спокоен, привык держать любую ситуацию под контролем. На день рождения Николас получает необычный подарок — билет для участия в «Игре». Ему обещают, что игра вернет яркие чувства, позволит ощутить вкус и остроту жизни. Вступив в игру, Николас начинает осознавать, что это игра всерьез, игра не на жизнь, а на смерть. Исходник: BDRemux 1080p Тип релиза: BDRip Контейнер: AVI Видео: 720x288 (2,50:1), 23,976 кадра/сек, XviD 73 ~ 1010 кбит/сек, 0.203 бит/пиксель Аудио: 48 кГц, Dolby Digital AC3 2.0, 192 кбит/сек Раздача от:
[+] MediaInfo Общее Полное имя : Игра.1997.BDRip__by_AVP_Studio.avi Формат : AVI Формат/Информация : Audio Video Interleave Настройки формата : BitmapInfoHeader / WaveFormatEx Размер файла : 1,09 Гбайт Продолжительность : 2 ч. 8 мин. Общий битрейт : 1 211 Кбит/сек Частота кадров : 23,976 кадра/сек Программа кодирования : VirtualDubMod 1.5.10.3 | www.virtualdub-fr.org || (build 2550/release) Библиотека кодирования : VirtualDubMod build 2550/release Видео Идентификатор : 0 Формат : MPEG-4 Visual Профиль формата : Advanced Simple@L5 Настройки формата : BVOP1 / Custom Matrix Параметр BVOP формата : 1 Параметр QPel формата : Нет Параметр GMC формата : Без точки перехода Параметр Matrix формата : Выборочная Идентификатор кодека : XVID Идентификатор кодека/Подсказка : XviD Продолжительность : 2 ч. 8 мин. Битрейт : 1 010 Кбит/сек Ширина : 720 пикселей Высота : 288 пикселей Соотношение сторон дисплея : 2,500 Частота кадров : 23,976 (24000/1001) кадра/сек Цветовое пространство : YUV Цветовая субдискретизация : 4:2:0 Битовая глубина : 8 бит Тип развёртки : Прогрессивная Метод сжатия : С потерями Бит/(Пиксели*Кадры) : 0.203 Размер потока : 930 Мбайт (83%) Библиотека кодирования : XviD 73 Аудио Идентификатор : 1 Формат : AC-3 Формат/Информация : Audio Coding 3 Коммерческое название : Dolby Digital Идентификатор кодека : 2000 Продолжительность : 2 ч. 8 мин. Вид битрейта : Постоянный Битрейт : 192 Кбит/сек Канал(-ы) : 2 канала Расположение каналов : L R Частота дискретизации : 48,0 КГц Частота кадров : 31,250 кадров/сек (1536 SPF) Метод сжатия : С потерями Размер потока : 177 Мбайт (16%) Выравнивание : Разделение по промежуткам Чередование, продолжительность : 42 мс. (1,00 видеокадр) Чередование, продолжительность пред.загр : 500 мс
[+] Скриншоты

Всего файлов в раздаче: 1 
Игра.1997.BDRip_[New-team]_by_AVP_Studio.avi1.09 GB

Похожие раздачи по запросу - Игра
2024-04-07 magnet КВН-2024. Высшая лига. 1/8 финала. Игра вторая [эфир от 06.04] (2024) WEBRip 1080p 1К9.58 GB ↑ 0 ↓ 0
2024-04-07 magnet КВН-2024. Высшая лига. 1/8 финала. Игра вторая [эфир от 06.04] (2024) SATRip 1.36 GB ↑ 0 ↓ 0
2024-04-02 magnet Игра / The Game (1997) BDRip-AVC от New-Team | D 2.19 GB ↑ 0 ↓ 0
2024-04-01 magnet Игра / The Game (1997) HybridRip 720p от DoMiNo | D, P | Open Matte 7.78 GB ↑ 0 ↓ 0
2024-04-01 magnet Игра / The Game (1997) BDRip 720p от New-Team | D 4.37 GB ↑ 0 ↓ 1
2024-03-28 magnet Честная игра / Fair Play (2023) WEB-DLRip от toxics & селезень | D, P 2.18 GB ↑ 0 ↓ 1
2024-03-27 magnet Честная игра / Fair Play (2023) WEB-DL 2160p | 4K | SDR | D, P 16.58 GB ↑ 0 ↓ 0

Комментарии


Зарегистрируйтесь чтобы добавить комментарий
Торрент клиент
byTorrent - программа для загрузки торрент-файлов.

Скачать byTorrent.exe (1,5 МБ)

Скачать byTorrent.zip (0,6 МБ)

Поддержи torrent.by
российских рублей
(300 российских рублей это 4$)

Обратная связь rss

End game ©