↑↓torrent.by
Поиск
Логин:  Регистрация
Пароль:

Опасная авантюра / American Dreamer (2018) WEB-DLRip-AVC | iTunes

download Скачать торрент-файл   magnet Магнитная ссылка Размер: 742.18 MB Добавлен: 2024-04-02 11:00
Пиры будут получены из сети DHT
Последний сидер был замечен 2024-04-03 13:49
Информация о фильме Название: Опасная авантюра Оригинальное название: American Dreamer Год выхода: 2018 Жанр: Триллер, криминал Режиссер: Деррик Борте В ролях: Джим Гэффиган, Изабель Арраиса, Тэмми Бланчард, Робби Джонс, Алехандро Эрнандес, Эрик Д. Хилл мл., Кертис Лайонс, Брайан К. Лэндис, Харрисон Фолл, Томми Коулман О фильме: После того как Кэм пережил сложный бракоразводный процесс, его жизнь рухнула. Он стал работать обычным таксистом и подрабатывать водителем у мелкого наркоторговца. Еле сводя концы с концами, Кэм в скором времени принимает решение пойти на опасную авантюру и сорвать солидный куш. Но с первых же минут всё идет не по плану. Выпущено: США / Storyland Pictures, Sugar Pictures LA, Old Dominion University Продолжительность: 01:32:30 Озвучивание: Дублированное | iTunes Файл Формат: Matroska Качество: WEB-DLRip-AVC Видео: 736x308 at 24.000 fps, x264@L4.1, ~1029 kbps, 0.189 bpp Аудио: AAC, 2 ch, ~96 kbps - | Русский | - Субтитры: Нет Дополнительно: Сохранены оригинальные чаптеры. ***Релиз от: -=DoMiNo=-
[+] M/Ix264 : frame I:916 Avg QP:12.90 size: 30829 x264 : frame P:32902 Avg QP:16.20 size: 10738 x264 : frame B:99398 Avg QP:18.41 size: 3316 General Format : Matroska Format version : Version 4 File size : 742 MiB Duration : 1 h 32 min Overall bit rate : 1 122 kb/s Movie name : Опасная авантюра.(2018).WEB-DLRip-AVC. Encoded date : UTC 2020-10-25 14:17:03 Writing application : mkvmerge v8.3.0 ('Over the Horizon') 64bit Writing library : libebml v1.3.1 + libmatroska v1.4.2 Cover : Yes Attachments : Cover.jpg / Cover 2.jpg Video ID : 1 Format : AVC Format/Info : Advanced Video Codec Format profile : High@L4.1 Format settings : CABAC / 12 Ref Frames Format settings, CABAC : Yes Format settings, Reference : 12 frames Codec ID : V_MPEG4/ISO/AVC Duration : 1 h 32 min Bit rate : 1 029 kb/s Width : 736 pixels Height : 308 pixels Display aspect ratio : 2.40:1 Frame rate mode : Constant Frame rate : 24.000 FPS Color space : YUV Chroma subsampling : 4:2:0 Bit depth : 8 bits Scan type : Progressive Bits/(Pixel*Frame) : 0.189 Stream size : 678 MiB (91%) Title : -=DoMiNo=- Writing library : x264 core 161 r3018 db0d417 Encoding settings : cabac=1 / ref=12 / deblock=1:-2:-1 / analyse=0x3:0x133 / me=umh / subme=11 / psy=1 / psy_rd=1.00:0.00 / mixed_ref=1 / me_range=32 / chroma_me=1 / trellis=2 / 8x8dct=1 / cqm=0 / deadzone=21,11 / fast_pskip=0 / chroma_qp_offset=-2 / threads=6 / lookahead_threads=1 / sliced_threads=0 / nr=0 / decimate=0 / interlaced=0 / bluray_compat=0 / constrained_intra=0 / bframes=11 / b_pyramid=2 / b_adapt=2 / b_bias=0 / direct=3 / weightb=1 / open_gop=0 / weightp=2 / keyint=250 / keyint_min=24 / scenecut=40 / intra_refresh=0 / rc_lookahead=60 / rc=2pass / mbtree=0 / bitrate=1029 / ratetol=1.0 / qcomp=0.60 / qpmin=0 / qpmax=69 / qpstep=4 / cplxblur=20.0 / qblur=0.5 / vbv_maxrate=50000 / vbv_bufsize=62500 / nal_hrd=none / filler=0 / ip_ratio=1.40 / pb_ratio=1.30 / aq=3:1.00 Language : English Default : Yes Forced : No Color range : Limited Color primaries : BT.709 Transfer characteristics : BT.709 Matrix coefficients : BT.709 Audio ID : 2 Format : AAC LC SBR Format/Info : Advanced Audio Codec Low Complexity with Spectral Band Replication Commercial name : HE-AAC Format settings : Explicit Codec ID : A_AAC-2 Duration : 1 h 32 min Bit rate : 96.0 kb/s Channel(s) : 2 channels Channel layout : L R Sampling rate : 48.0 kHz Frame rate : 23.438 FPS (2048 SPF) Compression mode : Lossy Stream size : 62.7 MiB (8%) Title : DUB Language : Russian Default : Yes Forced : Yes Menu 00:00:00.000 : :00:00:00.000 00:09:15.541 : :00:09:15.541 00:18:47.582 : :00:18:47.582 00:26:56.790 : :00:26:56.790 00:37:09.123 : :00:37:09.123 00:45:22.081 : :00:45:22.081 00:53:36.831 : :00:53:36.831 01:03:49.497 : :01:03:49.497 01:12:28.247 : :01:12:28.247 01:19:04.497 : :01:19:04.497 01:24:41.538 : :01:24:41.538
[+] Скриншоты

Всего файлов в раздаче: 1 
Опасная авантюра.(2018).WEB-DLRip-AVC.[-=DoMiNo=-].mkv742.18 MB

Похожие раздачи по запросу - Опасная
2024-04-07 magnet Опасная авантюра / American Dreamer (2018) WEB-DL 1080p от ELEKTRI4KА | iTunes 3.23 GB ↑ 0 ↓ 0
2024-01-14 magnet Коннолли Шон - Катастрофически «опасная» химия (2020) PDF 51.65 MB ↑ 0 ↓ 0

Комментарии


Зарегистрируйтесь чтобы добавить комментарий
Торрент клиент
byTorrent - программа для загрузки торрент-файлов.

Скачать byTorrent.exe (1,5 МБ)

Скачать byTorrent.zip (0,6 МБ)

Поддержи torrent.by
российских рублей
(300 российских рублей это 4$)

Обратная связь rss

End game ©