↑↓torrent.by
Поиск
Логин:  Регистрация
Пароль:

Звезда (2002) BDRip-HEVC 720p от ADVOKAT69

download Скачать торрент-файл   magnet Магнитная ссылка Размер: 2.52 GB Добавлен: 2024-04-02 17:00
Пиры будут получены из сети DHT
Последний сидер был замечен 2024-04-08 12:33
Информация о фильме Название: Звезда Год выхода: 2002 Жанр: Боевик, Драма, Приключения, Военный Режиссер: Николай Лебедев В ролях: Игорь Петренко, Артем Семакин, Алексей Панин, Алексей Кравченко, Анатолий Гущин, Амаду Мамадаков, Юрий Лагута, Екатерина Вуличенко, Андрей Егоров, Сергей Миллер О фильме: Лето 1944 года. Красная Армия приближается к западной границе СССР. В тыл врага отправляют группу разведчиков с позывными «Звезда». Молодые ребята должны выполнить задание, от которого зависит очень многое. И чтобы справиться с поставленной задачей, героям придется пожертвовать очень многим. Страна: Россия Студия: Мосфильм, АРК-Фильм Продолжительность: 01:37:13 Перевод: не требуется Файл Кодек: HEVC (x265) Качество: BDRip-HEVC 720p Видео: 1 204x720, 2 172 Кбит/сек, HEVC (Main10@L.4.1@High) 10 бит Звук: Аудио #1: Русский, DTS, 6 ch, 1509 Kbps Аудио #2: Русский,AC3, 6 ch, 448 Kbps - внешний файл (скачать с ЯД) Субтитры: нет Семпл
[+] Лог х265x265 x265 : x265 : frame I: 1311, Avg QP:17.41 kb/s: 12282.26 x265 : frame P: 29423, Avg QP:18.85 kb/s: 5377.30 x265 : frame B: 109140, Avg QP:21.33 kb/s: 1185.00 x265 : Weighted P-Frames: Y:14.1% UV:11.4% x265 : Weighted B-Frames: Y:7.3% UV:5.4% x265 : consecutive B-frames: 7.3% 4.3% 5.9% 37.1% 10.5% 27.7% 3.8% 2.5% 0.4% 0.3% encoded 139874 frames in 52093.76s (2.69 fps), 2170.87 kb/s, Avg QP:20.77
[+] МИ Общее Уникальный идентификатор : 199970882517133780134890382514280396134 (0x9670FDB667AC40C090431BF380BEF566) Полное имя : D:Звезда (2002) HEVC 10bit.mkv Формат : Matroska Версия формата : Version 4 Размер файла : 2,52 Гбайт Продолжительность : 1 ч. 38 м. Общий поток : 3 652 Кбит/сек Дата кодирования : UTC 2021-05-08 05:27:29 Программа кодирования : mkvmerge v9.2.0 ('Photograph') 64bit Библиотека кодирования : libebml v1.3.3 + libmatroska v1.4.4 Видео Идентификатор : 1 Формат : HEVC Формат/Информация : High Efficiency Video Coding Профиль формата : Main 10@L4.1@High Идентификатор кодека : V_MPEGH/ISO/HEVC Продолжительность : 1 ч. 37 м. Битрейт : 2 172 Кбит/сек Ширина : 1 204 пикселя Высота : 720 пикселей Соотношение сторон : 5:3 Режим частоты кадров : Постоянный Частота кадров : 23,976 (24000/1001) кадра/сек Цветовое пространство : YUV Субдискретизация насыщенности : 4:2:0 Битовая глубина : 10 бит Бит/(Пиксели*Кадры) : 0.104 Размер потока : 1,47 Гбайт (59%) Библиотека кодирования : x265 3.4+12-g9103319fc: 10bit Настройки программы : cpuid=1049583 / frame-threads=3 / numa-pools=8 / wpp / no-pmode / no-pme / no-psnr / no-ssim / log-level=2 / input-csp=1 / input-res=1204x720 / interlace=0 / total-frames=139874 / level-idc=41 / high-tier=1 / uhd-bd=0 / ref=5 / no-allow-non-conformance / no-repeat-headers / annexb / no-aud / no-hrd / info / hash=0 / no-temporal-layers / open-gop / min-keyint=24 / keyint=240 / gop-lookahead=0 / bframes=9 / b-adapt=2 / b-pyramid / bframe-bias=0 / rc-lookahead=40 / lookahead-slices=4 / scenecut=40 / hist-scenecut=0 / radl=0 / no-splice / no-intra-refresh / ctu=32 / min-cu-size=8 / rect / no-amp / max-tu-size=32 / tu-inter-depth=4 / tu-intra-depth=4 / limit-tu=1 / rdoq-level=2 / dynamic-rd=4.00 / no-ssim-rd / signhide / no-tskip / nr-intra=0 / nr-inter=0 / constrained-intra / no-strong-intra-smoothing / max-merge=3 / limit-refs=3 / limit-modes / me=3 / subme=7 / merange=57 / temporal-mvp / no-frame-dup / no-hme / weightp / weightb / no-analyze-src-pics / deblock=-2:-2 / no-sao / no-sao-non-deblock / rd=4 / selective-sao=0 / no-early-skip / rskip / no-fast-intra / no-tskip-fast / no-cu-lossless / b-intra / no-splitrd-skip / rdpenalty=0 / psy-rd=1.50 / psy-rdoq=0.70 / no-rd-refine / no-lossless / cbqpoffs=0 / crqpoffs=0 / rc=crf / crf=20.0 / qcomp=0.60 / qpstep=4 / stats-write=0 / stats-read=0 / vbv-maxrate=50000 / vbv-bufsize=50000 / vbv-init=0.9 / crf-max=0.0 / crf-min=0.0 / ipratio=1.40 / pbratio=1.30 / aq-mode=2 / aq-strength=0.80 / no-cutree / zone-count=0 / no-strict-cbr / qg-size=32 / no-rc-grain / qpmax=69 / qpmin=0 / no-const-vbv / sar=1 / overscan=0 / videoformat=5 / range=0 / colorprim=1 / transfer=1 / colormatrix=1 / chromaloc=0 / display-window=0 / cll=0,0 / min-luma=0 / max-luma=1023 / log2-max-poc-lsb=8 / vui-timing-info / vui-hrd-info / slices=1 / no-opt-qp-pps / no-opt-ref-list-length-pps / no-multi-pass-opt-rps / scenecut-bias=0.05 / hist-threshold=0.01 / no-opt-cu-delta-qp / no-aq-motion / no-hdr10 / no-hdr10-opt / no-dhdr10-opt / no-idr-recovery-sei / analysis-reuse-level=0 / analysis-save-reuse-level=0 / analysis-load-reuse-level=0 / scale-factor=0 / refine-intra=0 / refine-inter=0 / refine-mv=1 / refine-ctu-distortion=0 / no-limit-sao / ctu-info=0 / no-lowpass-dct / refine-analysis-type=0 / copy-pic=1 / max-ausize-factor=1.0 / no-dynamic-refine / no-single-sei / no-hevc-aq / no-svt / no-field / qp-adaptation-range=1.00 / no-scenecut-aware-qpconformance-window-offsets / right=0 / bottom=0 / decoder-max-rate=0 Default : Да Forced : Нет Цветовой диапазон : Limited Основные цвета : BT.709 Характеристики трансфера : BT.709 Коэффициенты матрицы : BT.709 Аудио Идентификатор : 2 Формат : DTS Формат/Информация : Digital Theater Systems Идентификатор кодека : A_DTS Продолжительность : 1 ч. 38 м. Вид битрейта : Постоянный Битрейт : 1 509 Кбит/сек Каналы : 6 каналов Channel layout : C L R Ls Rs LFE Частота : 48,0 КГц Частота кадров : 93,750 кадра/сек (512 SPF) Битовая глубина : 16 бит Метод сжатия : С потерями Размер потока : 1,04 Гбайт (41%) Default : Да Forced : Нет Меню 00:00:00.000 : en:Chapter 1 00:07:28.448 : en:Chapter 2 00:15:19.919 : en:Chapter 3 00:21:09.476 : en:Chapter 4 00:32:02.921 : en:Chapter 5 00:42:12.530 : en:Chapter 6 00:47:12.830 : en:Chapter 7 00:54:58.295 : en:Chapter 8 01:03:53.830 : en:Chapter 9 01:12:15.331 : en:Chapter 10 01:17:40.656 : en:Chapter 11 01:22:08.924 : en:Chapter 12
[+] Скриншоты
Релиз от: ADVOKAT69

Всего файлов в раздаче: 1 
Звезда (2002) HEVC 10bit.mkv2.52 GB

Похожие раздачи по запросу - Звезда
2024-03-02 magnet Серия - «Звезда соцсети» [45 книг] (2015-2023) FB2, PDF, EPUB 283.78 MB ↑ 0 ↓ 0

Комментарии


Зарегистрируйтесь чтобы добавить комментарий
Торрент клиент
byTorrent - программа для загрузки торрент-файлов.

Скачать byTorrent.exe (1,5 МБ)

Скачать byTorrent.zip (0,6 МБ)

Поддержи torrent.by
российских рублей
(300 российских рублей это 4$)

Обратная связь rss

End game ©