↑↓torrent.by
Поиск
Логин:  Регистрация
Пароль:

С меня хватит! / Falling Down (1993) BDRip-AVC от DoMiNo | D, P

download Скачать торрент-файл   magnet Магнитная ссылка Размер: 3.05 GB Добавлен: 2024-04-02 17:00
Пиры будут получены из сети DHT
Последний сидер был замечен 2024-04-06 11:17
Информация о фильме Название: С меня хватит! Оригинальное название: Falling Down Год выпуска: 1993 Жанр: Драма, триллер Режиссер: Джоэл Шумахер В ролях: Майкл Дуглас, Роберт Дювалл, Барбара Херши, Тьюзди Уэлд, Рейчел Тикотин, Фредерик Форрест, Лоис Смит, Рэймонд Дж. Бэрри, Д.В. Моффетт, Стив Парк Описание: Неудачи преследуют Уильяма всю жизнь. Особенно этим жарким летом. На работе его отправили в бессрочный отпуск. Решением суда ему запрещено встречаться с дочкой. Обозлившись на весь мир, Уильям решается на месть. Круша все на своем пути, он пробивается сквозь раскаленный город на день рождения к своей дочке. Люди воспринимают его как маньяка, и только опытный детектив Прендергаст знает в чем причина агрессии Уильяма. Страна: США, Франция, Великобритания Студия: Warner Brothers Pictures, Canal+, Alcor Films, Regency Enterprises Продолжительность: 01:52:36 Перевод: Профессиональный (дублированный), профессиональный (многоголосый, закадровый) Субтитры: Русские, английские Файл Формат: Matroska Качество: BDRip-AVC ] Видео: 1122x468 at 23.976 fps, x264, ~3301 kbps, 0.262 bpp Аудио №1: Русский, AC3, 2 ch, 192 Кбит/с - DUB - Ленфильм Аудио №2: Русский, AC3, 2 ch, 192 Кбит/с - MVO - Гемини Аудио №3: Английский, AC3, 2 ch, 192 Кбит/с - Оригинал Формат субтитров: softsub (SRT) Навигация по главам: Есть ***Релиз от: -=DoMiNo=-
[+] M/Ix264 info: frame I:1176 Avg QP:17.83 size: 78897 x264 info: frame P:31832 Avg QP:18.76 size: 32162 x264 info: frame B:128981 Avg QP:20.28 size: 12960 x264 info: consecutive B-frames: 1.2% 1.1% 4.1% 16.9% 22.7% 41.6% 6.2% 3.0% 1.0% 0.8% 0.5% 0.3% 0.1% 0.2% 0.2% General Format : Matroska Format version : Version 4 File size : 3.05 GiB Duration : 1 h 52 min Overall bit rate : 3 880 kb/s Movie name : С меня хватит!.(1993).BDRip-AVC. Encoded date : UTC 2019-10-17 08:48:51 Writing application : mkvmerge v38.0.0 ('The Silent Type') 64-bit Writing library : libebml v1.3.9 + libmatroska v1.5.2 Attachments : poster.jpg / poster 2.jpg Video ID : 1 Format : AVC Format/Info : Advanced Video Codec Format profile : High@L4.1 Format settings : CABAC / 12 Ref Frames Format settings, CABAC : Yes Format settings, Reference : 12 frames Codec ID : V_MPEG4/ISO/AVC Duration : 1 h 52 min Bit rate : 3 301 kb/s Width : 1 122 pixels Height : 468 pixels Display aspect ratio : 2.40:1 Frame rate mode : Constant Frame rate : 23.976 (24000/1001) FPS Color space : YUV Chroma subsampling : 4:2:0 Bit depth : 8 bits Scan type : Progressive Bits/(Pixel*Frame) : 0.262 Stream size : 2.60 GiB (85%) Title : RIP_BY_-=DoMiNo=- Writing library : x264 core 157 r2958 57baac4 Encoding settings : cabac=1 / ref=12 / deblock=1:-2:-2 / analyse=0x3:0x133 / me=umh / subme=11 / psy=1 / psy_rd=1.10:0.15 / mixed_ref=1 / me_range=48 / chroma_me=1 / trellis=2 / 8x8dct=1 / cqm=0 / deadzone=21,11 / fast_pskip=1 / chroma_qp_offset=-3 / threads=6 / lookahead_threads=1 / sliced_threads=0 / nr=0 / decimate=1 / interlaced=0 / bluray_compat=0 / constrained_intra=0 / bframes=14 / b_pyramid=2 / b_adapt=2 / b_bias=0 / direct=1 / weightb=1 / open_gop=0 / weightp=2 / keyint=240 / keyint_min=24 / scenecut=40 / intra_refresh=0 / rc=crf / mbtree=0 / crf=18.0 / qcomp=0.60 / qpmin=16 / qpmax=69 / qpstep=4 / ip_ratio=1.40 / pb_ratio=1.30 / aq=3:0.80 Language : English Default : Yes Forced : No Color range : Limited Color primaries : BT.709 Transfer characteristics : BT.709 Matrix coefficients : BT.709 Audio #1 ID : 2 Format : AC-3 Format/Info : Audio Coding 3 Commercial name : Dolby Digital Codec ID : A_AC3 Duration : 1 h 52 min Bit rate mode : Constant Bit rate : 192 kb/s Channel(s) : 2 channels Channel layout : L R Sampling rate : 48.0 kHz Frame rate : 31.250 FPS (1536 SPF) Compression mode : Lossy Stream size : 155 MiB (5%) Title : Dub (Ленфильм) Language : Russian Service kind : Complete Main Default : Yes Forced : No Audio #2 ID : 3 Format : AC-3 Format/Info : Audio Coding 3 Commercial name : Dolby Digital Codec ID : A_AC3 Duration : 1 h 52 min Bit rate mode : Constant Bit rate : 192 kb/s Channel(s) : 2 channels Channel layout : L R Sampling rate : 48.0 kHz Frame rate : 31.250 FPS (1536 SPF) Compression mode : Lossy Stream size : 155 MiB (5%) Title : MVO - Гемини Language : Russian Service kind : Complete Main Default : No Forced : No Audio #3 ID : 4 Format : AC-3 Format/Info : Audio Coding 3 Commercial name : Dolby Digital Codec ID : A_AC3 Duration : 1 h 52 min Bit rate mode : Constant Bit rate : 192 kb/s Channel(s) : 2 channels Channel layout : L R Sampling rate : 48.0 kHz Frame rate : 31.250 FPS (1536 SPF) Compression mode : Lossy Stream size : 155 MiB (5%) Title : ENG Language : English Service kind : Complete Main Default : No Forced : No Text #1 ID : 5 Format : UTF-8 Codec ID : S_TEXT/UTF8 Codec ID/Info : UTF-8 Plain Text Duration : 1 h 48 min Bit rate : 84 b/s Count of elements : 1174 Stream size : 66.9 KiB (0%) Title : Гемини Language : Russian Default : No Forced : No Text #2 ID : 6 Format : UTF-8 Codec ID : S_TEXT/UTF8 Codec ID/Info : UTF-8 Plain Text Duration : 1 h 48 min Bit rate : 85 b/s Count of elements : 1153 Stream size : 67.7 KiB (0%) Title : Твистер Language : Russian Default : No Forced : No Text #3 ID : 7 Format : UTF-8 Codec ID : S_TEXT/UTF8 Codec ID/Info : UTF-8 Plain Text Duration : 1 h 47 min Bit rate : 59 b/s Count of elements : 1463 Stream size : 47.2 KiB (0%) Language : English Default : No Forced : No Menu 00:00:00.000 : :Heavy Traffic (Credits) 00:06:55.832 : :My Rights As a Consumer 00:12:58.486 : :The Desk Jockey's Last Day 00:15:56.538 : :Love and London Bridge 00:17:59.787 : :Territorial Dispute 00:22:01.862 : :Mr. Lee's Statement 00:24:19.875 : :Ganging Up on D-Fens 00:29:44.866 : :Farewell Talk with the Captain 00:32:48.091 : :A Propensity for Violence 00:36:02.493 : :A Choice of Bags 00:38:54.540 : :A White Guy in Gangland? 00:41:06.547 : :Late for Breakfast 00:45:50.122 : :Could Have Been Anything 00:48:52.846 : :Not Economically Viable 00:52:01.159 : :Out of Order 00:52:32.065 : :Duelling Phone Calls 00:55:06.469 : :Nick's Pitch 00:58:28.546 : :"All the Guns in the...World" 01:00:52.440 : :Nick's Back Room: "I'm with You" 01:06:30.319 : :Pretending He's A Cop 01:09:09.228 : :The Other Side of the Moon 01:11:22.194 : :"D-Fens!" 01:13:26.276 : :Something to Fix 01:16:58.822 : :Glass House 01:18:44.261 : :Passing Through 01:21:37.017 : :The News From Work 01:24:10.503 : :Obsolete; Like It Was Before 01:28:17.500 : :Two Homes in Turmoil 01:34:46.430 : :Officer Down 01:37:22.294 : :The Pier: All Points Converge 01:42:10.707 : :"I'm the Bad Guy?" 01:46:38.558 : :Still a Cop 01:49:02.536 : :End Credits
[+] Скриншоты

Всего файлов в раздаче: 1 
С меня хватит!.(1993).BDRip-AVC.[-=DoMiNo=-].mkv3.05 GB

Похожие раздачи по запросу - меня
2024-04-12 magnet Запомните меня такой [01-02 из 02] (1987) DVDRip-AVC 1.72 GB ↑ 0 ↓ 0
2024-03-17 magnet Меня зовут Ро Ги-ван / Ro Gi Wan / Ro Giwan, My Name Is Loh Kiwan (2024) WEB-DLRip от New-Team | P | TVShows 1.46 GB ↑ 0 ↓ 0
2024-03-17 magnet Меня зовут Ро Ги-ван / Ro Gi Wan / Ro Giwan / My Name Is Loh Kiwan (2024) WEB-DL 1080p | P 5.83 GB ↑ 0 ↓ 0
2024-03-06 magnet Меня выгнали из группы героя / Shin no Nakama ja Nai to Yuusha no Party [S01] (2021) WEBRip | StudioBand 3.29 GB ↑ 0 ↓ 0
2024-01-22 magnet Ты найдёшь меня в глубине бездны / Me encontrarás en lo profundo del abismo / Into The Abyss (2022) BDRip от New-Team | P | Jaskier 1.47 GB ↑ 0 ↓ 0
2023-10-07 magnet Рассмеши меня (2023) WEB-DLRip 1.37 GB ↑ 0 ↓ 0
2023-06-02 magnet Ты убиваешь меня / You're Killing Me (2023) WEB-DLRip-AVC от ExKinoRay | P | Jaskier 743.35 MB ↑ 0 ↓ 0

Комментарии


Зарегистрируйтесь чтобы добавить комментарий
Торрент клиент
byTorrent - программа для загрузки торрент-файлов.

Скачать byTorrent.exe (1,5 МБ)

Скачать byTorrent.zip (0,6 МБ)

Поддержи torrent.by
российских рублей
(300 российских рублей это 4$)

Обратная связь rss

End game ©