↑↓torrent.by
Поиск
Логин:  Регистрация
Пароль:

OST - Ludovico Einaudi - A Cielo Abierto [24-bit Hi-Res, Original Motion Picture Soundtrack] (2024) FLAC

download Скачать торрент-файл   magnet Магнитная ссылка Размер: 474.15 MB Добавлен: 2024-04-02 17:00
Пиры будут получены из сети DHT
Последний сидер был замечен 2024-04-02 17:00
Название: A Cielo Abierto (Original Motion Picture Soundtrack) Исполнитель: Ludovico Einaudi Год: 2024 Жанр: Soundtracks Издатель (лейбл): Decca (UMO) (Classics) Продолжительность: 00:53:01 Формат/Кодек: FLAC Тип рипа: Tracks Битрейт аудио: Lossless Разрядность: 24 Bit/44,1 kHz
[+] Трек-лист 01. A Cielo Abierto (El Viaje I) (From "A Cielo Abierto" Soundtrack) (00:01:10) 02. El Padre (From "A Cielo Abierto" Soundtrack) (00:01:46) 03. Deshuesadero (From "A Cielo Abierto" Soundtrack) (00:00:47) 04. A Cielo Abierto (El Viaje Ii) (From "A Cielo Abierto" Soundtrack) (00:00:56) 05. Cicatriz (From "A Cielo Abierto" Soundtrack) (00:00:39) 06. Retén (From "A Cielo Abierto" Soundtrack) (00:02:38) 07. A Cielo Abierto (El Viaje Iii) (From "A Cielo Abierto" Soundtrack) (00:01:01) 08. Recuerdos Del Padre (From "A Cielo Abierto" Soundtrack) (00:02:13) 09. Accidente (From "A Cielo Abierto" Soundtrack) (00:02:17) 10. Salvador Y Paula (From "A Cielo Abierto" Soundtrack) (00:01:51) 11. Regreso A La Fonda (From "A Cielo Abierto" Soundtrack) (00:02:50) 12. Confesión (From "A Cielo Abierto" Soundtrack) (00:01:35) 13. La Cruz (From "A Cielo Abierto" Soundtrack) (00:03:33) 14. A Cielo Abierto (El Viaje Iv) (From "A Cielo Abierto" Soundtrack) (00:01:57) 15. Encontrando La Casa (From "A Cielo Abierto" Soundtrack) (00:01:14) 16. La Casa De Lucio Estrada (From "A Cielo Abierto" Soundtrack) (00:03:53) 17. La Llamada - Intento (From "A Cielo Abierto" Soundtrack) (00:01:58) 18. Secuestro (From "A Cielo Abierto" Soundtrack) (00:02:49) 19. Todas Las Noches Desde Entonces (From "A Cielo Abierto" Soundtrack) (00:01:05) 20. Sed (From "A Cielo Abierto" Soundtrack) (00:01:46) 21. Nos Dejó Morir (From "A Cielo Abierto" Soundtrack) (00:03:32) 22. Coyote (From "A Cielo Abierto" Soundtrack) (00:01:20) 23. La Tormenta (From "A Cielo Abierto" Soundtrack) (00:01:47) 24. Redención (From "A Cielo Abierto" Soundtrack) (00:03:02) 25. De Regreso A Casa (From "A Cielo Abierto" Soundtrack) (00:01:30) 26. A Cielo Abierto (Viaje V) (From "A Cielo Abierto" Soundtrack) (00:03:52)
[+] DRM foobar2000 1.5.5 / Замер динамического диапазона (DR) 1.1.1 ------------------------------------------------------------------------------- Анализ: Ludovico Einaudi / A Cielo Abierto -------------------------------------------------------------------------------- DR Пики RMS Продолжительность трека -------------------------------------------------------------------------------- DR11 -1.20 дБ -15.37 дБ 1:10 01-A Cielo Abierto (El Viaje I) (From "A Cielo Abierto" Soundtrack) DR6 -1.21 дБ -10.36 дБ 1:46 02-El Padre (From "A Cielo Abierto" Soundtrack) DR8 -14.78 дБ -28.10 дБ 0:47 03-Deshuesadero (From "A Cielo Abierto" Soundtrack) DR11 -1.22 дБ -16.24 дБ 0:56 04-A Cielo Abierto (El Viaje Ii) (From "A Cielo Abierto" Soundtrack) DR11 -8.28 дБ -27.65 дБ 0:39 05-Cicatriz (From "A Cielo Abierto" Soundtrack) DR11 -1.02 дБ -16.73 дБ 2:38 06-Retén (From "A Cielo Abierto" Soundtrack) DR11 -1.20 дБ -15.01 дБ 1:01 07-A Cielo Abierto (El Viaje Iii) (From "A Cielo Abierto" Soundtrack) DR11 -9.18 дБ -26.09 дБ 2:13 08-Recuerdos Del Padre (From "A Cielo Abierto" Soundtrack) DR11 -17.08 дБ -32.46 дБ 2:17 09-Accidente (From "A Cielo Abierto" Soundtrack) DR12 -7.15 дБ -26.84 дБ 1:51 10-Salvador Y Paula (From "A Cielo Abierto" Soundtrack) DR2 -5.57 дБ -10.86 дБ 2:50 11-Regreso A La Fonda (From "A Cielo Abierto" Soundtrack) DR12 -6.98 дБ -24.07 дБ 1:35 12-Confesión (From "A Cielo Abierto" Soundtrack) DR9 -6.69 дБ -20.36 дБ 3:33 13-La Cruz (From "A Cielo Abierto" Soundtrack) DR10 -1.17 дБ -14.69 дБ 1:57 14-A Cielo Abierto (El Viaje Iv) (From "A Cielo Abierto" Soundtrack) DR9 -8.85 дБ -23.30 дБ 1:14 15-Encontrando La Casa (From "A Cielo Abierto" Soundtrack) DR6 -1.21 дБ -12.30 дБ 3:53 16-La Casa De Lucio Estrada (From "A Cielo Abierto" Soundtrack) DR10 -1.82 дБ -15.33 дБ 1:58 17-La Llamada - Intento (From "A Cielo Abierto" Soundtrack) DR7 -0.70 дБ -10.55 дБ 2:49 18-Secuestro (From "A Cielo Abierto" Soundtrack) DR15 -10.03 дБ -32.26 дБ 1:05 19-Todas Las Noches Desde Entonces (From "A Cielo Abierto" Soundtrack) DR15 -4.08 дБ -20.58 дБ 1:46 20-Sed (From "A Cielo Abierto" Soundtrack) DR12 -8.52 дБ -26.05 дБ 3:32 21-Nos Dejó Morir (From "A Cielo Abierto" Soundtrack) DR7 -8.43 дБ -19.61 дБ 1:20 22-Coyote (From "A Cielo Abierto" Soundtrack) DR8 -0.90 дБ -13.97 дБ 1:47 23-La Tormenta (From "A Cielo Abierto" Soundtrack) DR12 -1.19 дБ -17.50 дБ 3:02 24-Redención (From "A Cielo Abierto" Soundtrack) DR12 -6.41 дБ -20.83 дБ 1:30 25-De Regreso A Casa (From "A Cielo Abierto" Soundtrack) DR11 -1.08 дБ -15.34 дБ 3:52 26-A Cielo Abierto (Viaje V) (From "A Cielo Abierto" Soundtrack) -------------------------------------------------------------------------------- Количество треков: 26 Реальные значения DR: DR10 Частота: 48000 Гц Каналов: 2 Разрядность: 24 Битрейт: 1424 кбит/с Кодек: FLAC ================================================================================
Время раздачи: 24/7 (минимум до появления первых 3-5 скачавших, на раздачи не возвращаюсь) Первое правило участника файлообмена: "Скачал сам - дай скачать другому!"

Всего файлов в раздаче: 27 
01. A Cielo Abierto (El Viaje I) (From _A Cielo Abierto_ Soundtrack).flac10.97 MB
02. El Padre (From _A Cielo Abierto_ Soundtrack).flac14.12 MB
03. Deshuesadero (From _A Cielo Abierto_ Soundtrack).flac6.80 MB
04. A Cielo Abierto (El Viaje II) (From _A Cielo Abierto_ Soundtrack).flac9.00 MB
05. Cicatriz (From _A Cielo Abierto_ Soundtrack).flac4.96 MB
06. Retén (From _A Cielo Abierto_ Soundtrack).flac23.30 MB
07. A Cielo Abierto (El Viaje III) (From _A Cielo Abierto_ Soundtrack).flac9.71 MB
08. Recuerdos del padre (From _A Cielo Abierto_ Soundtrack).flac18.86 MB
09. Accidente (From _A Cielo Abierto_ Soundtrack).flac18.90 MB
10. Salvador y Paula (From _A Cielo Abierto_ Soundtrack).flac14.87 MB
Показать все файлы

Похожие раздачи по запросу - OST
2024-03-31 magnet OST - Clint Mansell - Love Lies Bleeding [24-bit Hi-Res, Original Score] (2024) FLAC 347.17 MB ↑ 0 ↓ 0
2024-01-05 magnet OST - Бременские музыканты (2023) MP3 87.47 MB ↑ 0 ↓ 0

Комментарии


Зарегистрируйтесь чтобы добавить комментарий
Торрент клиент
byTorrent - программа для загрузки торрент-файлов.

Скачать byTorrent.exe (1,5 МБ)

Скачать byTorrent.zip (0,6 МБ)

Поддержи torrent.by
российских рублей
(300 российских рублей это 4$)

Обратная связь rss

End game ©