↑↓torrent.by
Поиск
Логин:  Регистрация
Пароль:

Мадам Паутина / Madame Web (2024) WEB-DL 1080p | D

download Скачать торрент-файл   magnet Магнитная ссылка Размер: 7.66 GB Раздают: 1 Качают: 0 Добавлен: 2024-04-02 17:00
Пиры будут получены из сети DHT
Последний сидер был замечен сегодня в 17:57
Информация о фильме Название: Мадам Паутина Оригинальное название: Madame Web Год выпуска: 2024 Жанр: фантастика, боевик, приключения Выпущено: США, Канада, Мексика / Columbia Pictures Corporation, Marvel Entertainment, Sony Pictures Entertainment (SPE) Режиссер: С.Дж. Кларксон В ролях: Дакота Джонсон, Сидни Суини, Изабела Мерсед, Селеста О'Коннор, Тахар Рахим, Майк Эппс, Эмма Робертс, Адам Скотт, Керри Бише, Заша Мэмет Описание: Медсестра из Манхэттена Кассандра Уэбб открывает в себе способность видеть будущее и понимает, что может использовать эту силу, чтобы его изменить. Столкнувшись с тайнами своего прошлого, Кассандра знакомится с тремя девушками, которым суждено однажды стать великими, если они вместе смогут пережить смертельно опасное настоящее. Продолжительность: 01:57:49 Перевод: Дублированный (MovieDalen) Субтитры: Русские (Forced, full), Английские (Full, SDH) Файл Формат: MKV Качество: WEB-DL 1080p Видео: AVC/H.264, 1920x800, ~8104 Kbps Аудио 1: AC3, 6 ch, 448 Kbps, Русский Аудио 2: E-AC3 JOC, 6 ch, 768 Kbps, Английский Релиз от: RGB
[+] MediaInfo:General Unique ID : 24406447717866661208791363583925480825 (0x125C82C70A0463A1B7BEBCAE9A6EED79) Complete name : H:RGBMadame.Web.2024.1080p.AMZN.WEB-DL.DDP5.1.Atmos.H.264-FLUX-RGB.mkv Format : Matroska Format version : Version 4 File size : 7.66 GiB Duration : 1 h 57 min Overall bit rate : 9 306 kb/s Frame rate : 23.976 FPS Movie name : RGB Encoded date : 2024-04-01 22:28:12 UTC Writing application : mkvmerge v82.0 ('I'm The President') 64-bit Writing library : libebml v1.4.5 + libmatroska v1.7.1 Video ID : 1 Format : AVC Format/Info : Advanced Video Codec Format profile : High@L4 Format settings : CABAC / 4 Ref Frames Format settings, CABAC : Yes Format settings, Reference : 4 frames Codec ID : V_MPEG4/ISO/AVC Duration : 1 h 57 min Bit rate mode : Constant Bit rate : 8 104 kb/s Nominal bit rate : 10 000 kb/s Width : 1 920 pixels Height : 800 pixels Display aspect ratio : 2.40:1 Frame rate mode : Constant Frame rate : 23.976 (24000/1001) FPS Color space : YUV Chroma subsampling : 4:2:0 Bit depth : 8 bits Scan type : Progressive Bits/(Pixel*Frame) : 0.220 Stream size : 6.67 GiB (87%) Title : FLUX Language : English (US) Default : Yes Forced : No Color range : Limited Color primaries : BT.709 Transfer characteristics : BT.709 Matrix coefficients : BT.709 Audio #1 ID : 2 Format : AC-3 Format/Info : Audio Coding 3 Commercial name : Dolby Digital Codec ID : A_AC3 Duration : 1 h 56 min Bit rate mode : Constant Bit rate : 448 kb/s Channel(s) : 6 channels Channel layout : L R C LFE Ls Rs Sampling rate : 48.0 kHz Frame rate : 31.250 FPS (1536 SPF) Compression mode : Lossy Stream size : 373 MiB (5%) Title : DUB Language : Russian Service kind : Complete Main Default : Yes Forced : No Audio #2 ID : 3 Format : E-AC-3 JOC Format/Info : Enhanced AC-3 with Joint Object Coding Commercial name : Dolby Digital Plus with Dolby Atmos Codec ID : A_EAC3 Duration : 1 h 56 min Bit rate mode : Constant Bit rate : 768 kb/s Channel(s) : 6 channels Channel layout : L R C LFE Ls Rs Sampling rate : 48.0 kHz Frame rate : 31.250 FPS (1536 SPF) Compression mode : Lossy Delay relative to video : 22 ms Stream size : 638 MiB (8%) Title : orig Language : English Service kind : Complete Main Default : No Forced : No Complexity index : 16 Number of dynamic objects : 15 Bed channel count : 1 channel Bed channel configuration : LFE Text #1 ID : 4 Format : UTF-8 Codec ID : S_TEXT/UTF8 Codec ID/Info : UTF-8 Plain Text Duration : 1 h 24 min Bit rate : 2 b/s Frame rate : 0.004 FPS Count of elements : 22 Stream size : 1.46 KiB (0%) Title : forced Language : Russian Default : Yes Forced : No Text #2 ID : 5 Format : UTF-8 Codec ID : S_TEXT/UTF8 Codec ID/Info : UTF-8 Plain Text Duration : 1 h 55 min Bit rate : 91 b/s Frame rate : 0.221 FPS Count of elements : 1527 Stream size : 77.4 KiB (0%) Title : full Language : Russian Default : No Forced : No Text #3 ID : 6 Format : UTF-8 Codec ID : S_TEXT/UTF8 Codec ID/Info : UTF-8 Plain Text Duration : 1 h 47 min Bit rate : 59 b/s Frame rate : 0.251 FPS Count of elements : 1611 Stream size : 46.4 KiB (0%) Title : British Language : English (GB) Default : No Forced : No Text #4 ID : 7 Format : UTF-8 Codec ID : S_TEXT/UTF8 Codec ID/Info : UTF-8 Plain Text Duration : 1 h 47 min Bit rate : 68 b/s Frame rate : 0.297 FPS Count of elements : 1922 Stream size : 54.1 KiB (0%) Title : SDH Language : English (US) Default : No Forced : No Text #5 ID : 8 Format : UTF-8 Codec ID : S_TEXT/UTF8 Codec ID/Info : UTF-8 Plain Text Duration : 1 h 55 min Bit rate : 70 b/s Frame rate : 0.314 FPS Count of elements : 2175 Stream size : 59.4 KiB (0%) Title : SDH Language : English Default : No Forced : No Menu 00:00:00.000 : en:Chapter 01 00:07:55.684 : en:Chapter 02 00:15:51.659 : en:Chapter 03 00:22:54.249 : en:Chapter 04 00:27:42.620 : en:Chapter 05 00:36:52.962 : en:Chapter 06 00:44:36.176 : en:Chapter 07 00:52:22.475 : en:Chapter 08 01:00:17.575 : en:Chapter 09 01:07:17.370 : en:Chapter 10 01:17:02.747 : en:Chapter 11 01:20:05.513 : en:Chapter 12 01:28:01.740 : en:Chapter 13 01:35:39.114 : en:Chapter 14 01:46:37.605 : en:Chapter 15 01:48:51.072 : en:Chapter 16
[+] Скриншоты

Всего файлов в раздаче: 1 
Madame.Web.2024.1080p.AMZN.WEB-DL.DDP5.1.Atmos.H.264-FLUX-RGB.mkv7.66 GB

Похожие раздачи по запросу - Мадам
2024-04-08 magnet Мадам Паутина / Мадам Павутина / Madame Web (2024) WEB-DL 1080p | D | UKR 7.92 GB ↑ 1 ↓ 0
2024-04-04 magnet Мадам Паутина / Madame Web (2024) WEB-DL-HEVC 2160p | 4K | SDR | D, P, P2 13.08 GB ↑ 2 ↓ 2
2024-04-03 magnet Мадам Паутина / Madame Web (2024) WEB-DLRip от toxics & селезень | D 1.46 GB ↑ 0 ↓ 0
2024-04-02 magnet Мадам Паутина / Madame Web (2024) WEB-DL 1080p от EniaHD | D, P, P2 9.79 GB ↑ 0 ↓ 5
2024-04-02 magnet Мадам Паутина / Madame Web (2024) UHD WEB-DL 2160p от селезень | 4K | HDR | Dolby Vision Profile 8 | D, P, P2 21.52 GB ↑ 0 ↓ 5
2024-04-02 magnet Мадам Паутина / Madame Web (2024) WEB-DLRip 1080p от селезень | D, P, P2 7.57 GB ↑ 0 ↓ 0
2024-04-02 magnet Мадам Паутина / Madame Web (2024) WEB-DLRip от MegaPeer | D 1.46 GB ↑ 0 ↓ 0

Комментарии


Зарегистрируйтесь чтобы добавить комментарий
Торрент клиент
byTorrent - программа для загрузки торрент-файлов.

Скачать byTorrent.exe (1,5 МБ)

Скачать byTorrent.zip (0,6 МБ)

Поддержи torrent.by
российских рублей
(300 российских рублей это 4$)

Обратная связь rss

End game ©