↑↓torrent.by
Поиск
Логин:  Регистрация
Пароль:

Хилл / The Hill (2023) BDRip 720p от DoMiNo & селезень | P | Jaskier

download Скачать торрент-файл   magnet Магнитная ссылка Размер: 5.06 GB Добавлен: 2024-04-03 05:00
Пиры будут получены из сети DHT
Последний сидер был замечен 2024-04-07 07:31
Информация о фильме Название: Хилл Оригинальное название: The Hill Жанр: Драма, биография, спорт Год выпуска: 2023 Режиссер: Джефф Челентано / Jeff Celentano В ролях: Деннис Куэйд, Колин Форд, Джоэль Картер, Скотт Гленн, Сиена Бьорнеруд, Райан Диннинг, Карина Уорм, Бонни Беделиа, Рэнди Хаусер, Джесси Берри, Мейсон Джиллетт, Мила Харрис, Хейли Бителл, Тайрик Джонсон Описание: История парня по имени Рики Хилл, который преодолевает свой физический недостаток, чтобы стать игроком Главной лиги бейсбола. Страна: США Студия: Rescue Dog Productions, Vitamin A Films Продолжительность: 02:07:04 Перевод: Профессиональный (многоголосый закадровый) | Jaskier *** Отсутствует перевод с 00:57:51 по 01:01:57, переведено русскими субтитрами Субтитры: Русские (Forced, Full), Английские Файл Формат: Matroska Качество: BDRip 720p Видео: 1280x536 at 23.976 fps, x264@L4.1, ~3816 kbps Аудио 1: AC3, 6 ch, ~384 kbps - | Русский | Аудио 2: DTS, 6 ch, ~1509 kbps - | Английский | Формат субтитров: softsub (SRT) ***Рип от: -=DoMiNo=-
[+] M/IGeneral Unique ID : 277731783466556053685713049770914881271 (0xD0F13221D33EAE332E335FFAD8421EF7) Complete name : T:The.Hill.2023.MVO.BDRip.720p.x264.seleZen.mkv Format : Matroska Format version : Version 4 File size : 5.06 GiB Duration : 2 h 7 min Overall bit rate : 5 705 kb/s Frame rate : 23.976 FPS Movie name : The.Hill.2023.MVO.BDRip.720p.x264.seleZen Encoded date : 2024-04-02 13:33:15 UTC Writing application : mkvmerge v83.0 ('Circle Of Friends') 64-bit Writing library : libebml v1.4.5 + libmatroska v1.7.1 Cover : Yes Attachments : cover.jpg / small_cover.jpg Video ID : 1 Format : AVC Format/Info : Advanced Video Codec Format profile : High@L4.1 Format settings : CABAC / 12 Ref Frames Format settings, CABAC : Yes Format settings, Reference : 12 frames Codec ID : V_MPEG4/ISO/AVC Duration : 2 h 6 min Bit rate : 3 816 kb/s Width : 1 280 pixels Height : 536 pixels Display aspect ratio : 2.40:1 Frame rate mode : Constant Frame rate : 23.976 (24000/1001) FPS Color space : YUV Chroma subsampling : 4:2:0 Bit depth : 8 bits Scan type : Progressive Bits/(Pixel*Frame) : 0.232 Stream size : 3.38 GiB (67%) Title : -=DoMiNo=- Writing library : x264 core 164 r3190 -DoMiNo Encoding settings : cabac=1 / ref=12 / deblock=1:-2:-2 / analyse=0x3:0x133 / me=umh / subme=10 / psy=1 / psy_rd=1.05:0.05 / mixed_ref=1 / me_range=32 / chroma_me=1 / trellis=2 / 8x8dct=1 / cqm=0 / deadzone=21,11 / fast_pskip=0 / chroma_qp_offset=-3 / threads=17 / lookahead_threads=4 / sliced_threads=0 / nr=0 / decimate=0 / interlaced=0 / bluray_compat=0 / constrained_intra=0 / bframes=10 / b_pyramid=2 / b_adapt=2 / b_bias=0 / direct=1 / weightb=1 / open_gop=0 / weightp=2 / keyint=240 / keyint_min=23 / scenecut=40 / intra_refresh=0 / rc_lookahead=60 / rc=crf / mbtree=0 / crf=18.0 / qcomp=0.60 / qpmin=0 / qpmax=69 / qpstep=4 / vbv_maxrate=50000 / vbv_bufsize=62500 / crf_max=0.0 / nal_hrd=none / filler=0 / ip_ratio=1.35 / pb_ratio=1.30 / aq=3:0.80 Language : English Default : Yes Forced : No Color range : Limited Color primaries : BT.709 Transfer characteristics : BT.709 Matrix coefficients : BT.709 Audio #1 ID : 2 Format : AC-3 Format/Info : Audio Coding 3 Commercial name : Dolby Digital Codec ID : A_AC3 Duration : 2 h 6 min Bit rate mode : Constant Bit rate : 384 kb/s Channel(s) : 6 channels Channel layout : L R C LFE Ls Rs Sampling rate : 48.0 kHz Frame rate : 31.250 FPS (1536 SPF) Compression mode : Lossy Stream size : 349 MiB (7%) Title : MVO -Jaskier Language : Russian Service kind : Complete Main Default : Yes Forced : No Audio #2 ID : 3 Format : DTS Format/Info : Digital Theater Systems Codec ID : A_DTS Duration : 2 h 6 min Bit rate mode : Constant Bit rate : 1 509 kb/s Channel(s) : 6 channels Channel layout : C L R Ls Rs LFE Sampling rate : 48.0 kHz Frame rate : 93.750 FPS (512 SPF) Bit depth : 24 bits Compression mode : Lossy Stream size : 1.34 GiB (26%) Title : Original Language : English Default : No Forced : No Text #1 ID : 4 Format : UTF-8 Codec ID : S_TEXT/UTF8 Codec ID/Info : UTF-8 Plain Text Duration : 2 h 6 min Bit rate : 5 b/s Frame rate : 0.014 FPS Count of elements : 103 Stream size : 5.44 KiB (0%) Title : forced Language : Russian Default : No Forced : No Text #2 ID : 5 Format : UTF-8 Codec ID : S_TEXT/UTF8 Codec ID/Info : UTF-8 Plain Text Duration : 2 h 6 min Bit rate : 87 b/s Frame rate : 0.206 FPS Count of elements : 1561 Stream size : 81.2 KiB (0%) Title : full Language : Russian Default : No Forced : No Text #3 ID : 6 Format : UTF-8 Codec ID : S_TEXT/UTF8 Codec ID/Info : UTF-8 Plain Text Duration : 1 h 55 min Bit rate : 56 b/s Frame rate : 0.223 FPS Count of elements : 1540 Stream size : 47.9 KiB (0%) Title : Full Language : English Default : No Forced : No Text #4 ID : 7 Format : UTF-8 Codec ID : S_TEXT/UTF8 Codec ID/Info : UTF-8 Plain Text Duration : 2 h 2 min Bit rate : 65 b/s Frame rate : 0.245 FPS Count of elements : 1792 Stream size : 59.0 KiB (0%) Title : SDH Language : English Default : No Forced : No Menu 00:00:00.000 : en:Chapter 01 00:05:32.832 : en:Chapter 02 00:09:50.548 : en:Chapter 03 00:19:07.688 : en:Chapter 04 00:25:00.499 : en:Chapter 05 00:32:46.047 : en:Chapter 06 00:40:41.689 : en:Chapter 07 00:45:04.368 : en:Chapter 08 00:54:23.510 : en:Chapter 09 00:57:27.527 : en:Chapter 10 01:02:08.475 : en:Chapter 11 01:08:27.562 : en:Chapter 12 01:13:13.931 : en:Chapter 13 01:18:01.093 : en:Chapter 14 01:23:07.107 : en:Chapter 15 01:30:09.321 : en:Chapter 16 01:36:51.264 : en:Chapter 17 01:42:08.914 : en:Chapter 18 01:52:02.382 : en:Chapter 19 01:59:41.257 : en:Chapter 20
Релиз: Присоединяйся к: Кликай на баннеры.

Всего файлов в раздаче: 1 
The.Hill.2023.MVO.BDRip.720p.x264.seleZen.mkv5.06 GB

Похожие раздачи по запросу - Хилл
2024-04-02 magnet Хилл / The Hill (2023) BDRip от MegaPeer | P | Jaskier 1.46 GB ↑ 0 ↓ 0

Комментарии


Зарегистрируйтесь чтобы добавить комментарий
Торрент клиент
byTorrent - программа для загрузки торрент-файлов.

Скачать byTorrent.exe (1,5 МБ)

Скачать byTorrent.zip (0,6 МБ)

Поддержи torrent.by
российских рублей
(300 российских рублей это 4$)

Обратная связь rss

End game ©