↑↓torrent.by
Поиск
Логин:  Регистрация
Пароль:

Задача трёх тел / 3 Body Problem [S01] (2024) WEB-DL 2160p | 4K | SDR | P

download Скачать торрент-файл   magnet Магнитная ссылка Размер: 54.63 GB Раздают: 0 Качают: 1 Добавлен: 2024-04-03 05:00
Пиры будут получены из сети DHT
Последний сидер был замечен 2024-04-03 05:00
Название: Задача трёх тел Оригинальное название: 3 Body Problem Год выхода: 2024 Производство: Великобритания, США, Китай / Bighead Littlehead, Netflix Studios, Plan B Entertainment, Primitive Streak Жанр: Фантастика, фэнтези, драма, детектив Перевод: Профессиональный многоголосый Продолжительность: 8х ~00:55:00 серия Режиссёры: Минки Спиро, Джереми Подесва, Дерек Цан, Эндрю Стэнтон В ролях: Джесс Хонг, Лиам Каннингэм, Эйса Гонсалес, Джован Адепо, Джон Брэдли, Алекс Шарп, Бенедикт Вонг, Саамер Усмани, Розалинд Чао, Цай Чинь, Джонатан Прайс, Авиталь Львова, Бен Шнетцер, Эдмунд Кингсли, Хосе Пальма Описание: Учёные по всему миру накладывают на себя руки, сталкиваясь с нарушениями законов физики в их экспериментах. Всё это как-то связано с VR-игрой «Три тела», тайной научной ячейкой и инопланетянами. Как именно - разбираются детектив Да Ши и группа физиков - выпускников Оксфорда Формат: MKV Качество: WEB-DL 2160p Видео: MPEG-H/HEVC, 3840x2160, 15.3 Mb/s, 0.077 бит/(Пиксели*Кадры), 23,976 fps Аудио 1: Е-AC3, 6 ch, 768 Kbps, русский (MVO, LostFilm) Аудио 2: AC3, 2 ch, 192 Kbps, русский (MVO, HDRezka Studio) Аудио 3: AC3, 6 ch, 384 Kbps, русский (MVO, Jaskier) Аудио 4: AC3, 2 ch, 192 Kbps, русский (MVO, Red Head Sound) Аудио 5: Е-AC3, 6 ch, 640 Kbps, украинский (DUB, Postmodern) Аудио 6: E-AC3 JOC, 6 ch, 768 Kbps, английский Субтитры: Русские (Forced, Full), Английские (Forced, SDH)
[+] MediainfoОбщее Уникальный идентификатор : 266351896657348704623589447313670984659 (0xC8618264DF066D0762D01F1A4986D3D3) Полное имя : D:3.Body.Problem.2024.S01.2160p.SDR3.Body.Problem.S01E01.2160p.SDR.mkv Формат : Matroska Версия формата : Version 4 Размер файла : 7,90 Гбайт Продолжительность : 1 ч. 0 мин. Общий битрейт : 18,7 Мбит/сек Частота кадров : 23,976 кадра/сек Дата кодирования : 2024-03-31 06:47:16 UTC Программа кодирования : mkvmerge v83.0 ('Circle Of Friends') 64-bit Библиотека кодирования : libebml v1.4.5 + libmatroska v1.7.1 Обложка : Yes Attachments : cover.png / Cover.3.jpg Видео Идентификатор : 1 Формат : HEVC Формат/Информация : High Efficiency Video Coding Профиль формата : Main 10@L5@Main Идентификатор кодека : V_MPEGH/ISO/HEVC Продолжительность : 1 ч. 0 мин. Битрейт : 15,3 Мбит/сек Ширина : 3 840 пикселей Высота : 2 160 пикселей Соотношение сторон дисплея : 16:9 Режим частоты кадров : Постоянный Частота кадров : 23,976 (24000/1001) кадра/сек Цветовое пространство : YUV Цветовая субдискретизация : 4:2:0 Битовая глубина : 10 бит Бит/(Пиксели*Кадры) : 0.077 Размер потока : 6,46 Гбайт (82%) По умолчанию : Да Принудительно : Нет Цветовой диапазон : Limited Основные цвета : BT.709 Характеристики трансфера : BT.709 Коэффициенты матрицы : BT.709 Аудио #1 Идентификатор : 2 Формат : E-AC-3 Формат/Информация : Enhanced AC-3 Коммерческое название : Dolby Digital Plus Идентификатор кодека : A_EAC3 Продолжительность : 1 ч. 0 мин. Вид битрейта : Постоянный Битрейт : 768 Кбит/сек Канал(-ы) : 6 каналов Расположение каналов : L R C LFE Ls Rs Частота дискретизации : 48,0 КГц Частота кадров : 31,250 кадров/сек (1536 SPF) Метод сжатия : С потерями Размер потока : 333 Мбайт (4%) Заголовок : LostFilm Язык : Русский Вид сервиса : Complete Main По умолчанию : Да Принудительно : Нет Аудио #2 Идентификатор : 3 Формат : AC-3 Формат/Информация : Audio Coding 3 Коммерческое название : Dolby Digital Идентификатор кодека : A_AC3 Продолжительность : 1 ч. 0 мин. Вид битрейта : Постоянный Битрейт : 192 Кбит/сек Канал(-ы) : 2 канала Расположение каналов : L R Частота дискретизации : 48,0 КГц Частота кадров : 31,250 кадров/сек (1536 SPF) Метод сжатия : С потерями Размер потока : 83,2 Мбайт (1%) Заголовок : HDRezka Studio Язык : Русский Вид сервиса : Complete Main По умолчанию : Нет Принудительно : Нет Аудио #3 Идентификатор : 4 Формат : AC-3 Формат/Информация : Audio Coding 3 Коммерческое название : Dolby Digital Идентификатор кодека : A_AC3 Продолжительность : 1 ч. 0 мин. Вид битрейта : Постоянный Битрейт : 384 Кбит/сек Канал(-ы) : 6 каналов Расположение каналов : L R C LFE Ls Rs Частота дискретизации : 48,0 КГц Частота кадров : 31,250 кадров/сек (1536 SPF) Метод сжатия : С потерями Размер потока : 166 Мбайт (2%) Заголовок : Jaskier Язык : Русский Вид сервиса : Complete Main По умолчанию : Нет Принудительно : Нет AC3_metadata cmixlev : -4.5 dB surmixlev : -6 dB Аудио #4 Идентификатор : 5 Формат : AC-3 Формат/Информация : Audio Coding 3 Коммерческое название : Dolby Digital Идентификатор кодека : A_AC3 Продолжительность : 1 ч. 0 мин. Вид битрейта : Постоянный Битрейт : 448 Кбит/сек Канал(-ы) : 6 каналов Расположение каналов : L R C LFE Ls Rs Частота дискретизации : 48,0 КГц Частота кадров : 31,250 кадров/сек (1536 SPF) Метод сжатия : С потерями Размер потока : 194 Мбайт (2%) Заголовок : TVShows Язык : Русский Вид сервиса : Complete Main По умолчанию : Нет Принудительно : Нет AC3_metadata cmixlev : -4.5 dB surmixlev : -6 dB Аудио #5 Идентификатор : 6 Формат : AC-3 Формат/Информация : Audio Coding 3 Коммерческое название : Dolby Digital Идентификатор кодека : A_AC3 Продолжительность : 1 ч. 0 мин. Вид битрейта : Постоянный Битрейт : 192 Кбит/сек Канал(-ы) : 2 канала Расположение каналов : L R Частота дискретизации : 48,0 КГц Частота кадров : 31,250 кадров/сек (1536 SPF) Метод сжатия : С потерями Размер потока : 83,2 Мбайт (1%) Заголовок : Red Head Sound Язык : Русский Вид сервиса : Complete Main По умолчанию : Нет Принудительно : Нет Аудио #6 Идентификатор : 7 Формат : E-AC-3 Формат/Информация : Enhanced AC-3 Коммерческое название : Dolby Digital Plus Идентификатор кодека : A_EAC3 Продолжительность : 1 ч. 0 мин. Вид битрейта : Постоянный Битрейт : 640 Кбит/сек Канал(-ы) : 6 каналов Расположение каналов : L R C LFE Ls Rs Частота дискретизации : 48,0 КГц Частота кадров : 31,250 кадров/сек (1536 SPF) Метод сжатия : С потерями Размер потока : 277 Мбайт (3%) Заголовок : Postmodern Язык : Украинский Вид сервиса : Complete Main По умолчанию : Нет Принудительно : Нет Аудио #7 Идентификатор : 8 Формат : E-AC-3 JOC Формат/Информация : Enhanced AC-3 with Joint Object Coding Коммерческое название : Dolby Digital Plus with Dolby Atmos Идентификатор кодека : A_EAC3 Продолжительность : 1 ч. 0 мин. Вид битрейта : Постоянный Битрейт : 768 Кбит/сек Канал(-ы) : 6 каналов Расположение каналов : L R C LFE Ls Rs Частота дискретизации : 48,0 КГц Частота кадров : 31,250 кадров/сек (1536 SPF) Метод сжатия : С потерями Размер потока : 333 Мбайт (4%) Язык : Английский Вид сервиса : Complete Main По умолчанию : Нет Принудительно : Нет Показатель сложности : 16 Количество динамических объектов : 15 Число каналов бэда : 1 канал Конфигурация каналов бэда : LFE Текст #1 Идентификатор : 9 Формат : UTF-8 Идентификатор кодека : S_TEXT/UTF8 Идентификатор кодека/Информация : UTF-8 Plain Text Продолжительность : 50 мин. 40 с. Битрейт : 3 бит/сек Частота кадров : 0,009 кадр/сек Число элементов : 26 Размер потока : 1,28 КиБ (0%) Заголовок : Forced Язык : Русский По умолчанию : Нет Принудительно : Да Текст #2 Идентификатор : 10 Формат : UTF-8 Идентификатор кодека : S_TEXT/UTF8 Идентификатор кодека/Информация : UTF-8 Plain Text Продолжительность : 58 мин. 18 с. Битрейт : 64 бит/сек Частота кадров : 0,163 кадр/сек Число элементов : 570 Размер потока : 27,7 КиБ (0%) Язык : Русский По умолчанию : Нет Принудительно : Нет Текст #3 Идентификатор : 11 Формат : UTF-8 Идентификатор кодека : S_TEXT/UTF8 Идентификатор кодека/Информация : UTF-8 Plain Text Продолжительность : 55 мин. 27 с. Битрейт : 6 бит/сек Частота кадров : 0,019 кадр/сек Число элементов : 62 Размер потока : 2,54 КиБ (0%) Заголовок : Forced Язык : Украинский По умолчанию : Нет Принудительно : Нет Текст #4 Идентификатор : 12 Формат : UTF-8 Идентификатор кодека : S_TEXT/UTF8 Идентификатор кодека/Информация : UTF-8 Plain Text Продолжительность : 58 мин. 23 с. Битрейт : 67 бит/сек Частота кадров : 0,169 кадр/сек Число элементов : 592 Размер потока : 28,9 КиБ (0%) Язык : Украинский По умолчанию : Нет Принудительно : Нет Текст #5 Идентификатор : 13 Формат : UTF-8 Идентификатор кодека : S_TEXT/UTF8 Идентификатор кодека/Информация : UTF-8 Plain Text Продолжительность : 54 мин. 37 с. Битрейт : 13 бит/сек Частота кадров : 0,055 кадр/сек Число элементов : 180 Размер потока : 5,21 КиБ (0%) Заголовок : Forced Язык : Английский По умолчанию : Нет Принудительно : Нет Текст #6 Идентификатор : 14 Формат : UTF-8 Идентификатор кодека : S_TEXT/UTF8 Идентификатор кодека/Информация : UTF-8 Plain Text Продолжительность : 56 мин. 7 с. Битрейт : 44 бит/сек Частота кадров : 0,175 кадр/сек Число элементов : 589 Размер потока : 18,2 КиБ (0%) Язык : Английский По умолчанию : Нет Принудительно : Нет Текст #7 Идентификатор : 15 Формат : UTF-8 Идентификатор кодека : S_TEXT/UTF8 Идентификатор кодека/Информация : UTF-8 Plain Text Продолжительность : 58 мин. 23 с. Битрейт : 58 бит/сек Частота кадров : 0,239 кадр/сек Число элементов : 839 Размер потока : 25,2 КиБ (0%) Заголовок : SDH Язык : Английский По умолчанию : Нет Принудительно : Нет Меню 00:00:00.000 : en:Part 01 00:56:30.450 : en:Credits
[+] Скриншоты

Всего файлов в раздаче: 8 
3.Body.Problem.S01E01.2160p.SDR.mkv7.90 GB
3.Body.Problem.S01E02.2160p.SDR.mkv8.12 GB
3.Body.Problem.S01E03.2160p.SDR.mkv6.52 GB
3.Body.Problem.S01E04.2160p.SDR.mkv4.99 GB
3.Body.Problem.S01E05.2160p.SDR.mkv7.59 GB
3.Body.Problem.S01E06.2160p.SDR.mkv6.11 GB
3.Body.Problem.S01E07.2160p.SDR.mkv7.17 GB
3.Body.Problem.S01E08.2160p.SDR.mkv6.23 GB

Похожие раздачи по запросу - Задача
2024-04-03 magnet Задача трёх тел / 3 Body Problem [S01] (2024) WEB-DL-HEVC 2160p | 4K | HDR | HDrezka Studio, LostFilm, TVShows, Red Head Sound 40.50 GB ↑ 0 ↓ 6
2024-04-02 magnet Задача трёх тел / 3 Body Problem [S01] (2024) WEB-DLRip | LostFilm 6.19 GB ↑ 0 ↓ 0
2024-04-02 magnet Задача трёх тел / 3 Body Problem [S01] (2024) WEB-DL 1080p | HDrezka Studio, LostFilm, TVShows, Red Head Sound 2К23.86 GB ↑ 2 ↓ 14
2024-04-02 magnet Задача трёх тел / 3 Body Problem [S01] (2024) WEB-DL 1080p | ViruseProject 17.49 GB ↑ 0 ↓ 0
2024-04-01 magnet Задача трёх тел / 3 Body Problem [S01] (2024) WEB-DL 2160p | 4K | SDR | P 54.17 GB ↑ 0 ↓ 0
2024-03-30 magnet Задача трёх тел / 3 Body Problem [S01] (2024) WEB-DLRip-AVC | КПК | Jaskier 1.71 GB ↑ 0 ↓ 0
2024-03-29 magnet Задача трёх тел / 3 Body Problem [S01] (2024) WEB-DL-HEVC 2160p | 4K | HDR | HDrezka Studio, LostFilm, Jaskier, Red Head Sound 37.94 GB ↑ 0 ↓ 1

Комментарии


Зарегистрируйтесь чтобы добавить комментарий
Торрент клиент
byTorrent - программа для загрузки торрент-файлов.

Скачать byTorrent.exe (1,5 МБ)

Скачать byTorrent.zip (0,6 МБ)

Поддержи torrent.by
российских рублей
(300 российских рублей это 4$)

Обратная связь rss

End game ©