↑↓torrent.by
Поиск
Логин:  Регистрация
Пароль:

Цирк! / Сальто-мортале [01-09 из 17] (2024) WEB-DL 1080p

download Скачать торрент-файл   magnet Магнитная ссылка Размер: 6.31 GB Добавлен: 2024-04-03 05:00
Пиры будут получены из сети DHT
Последний сидер был замечен 2024-04-04 00:14
Информация о сериале Оригинальное название: Цирк! / Сальто-мортале Год выпуска: 2024 Жанр: Комедия, приключения Выпущено: Россия, Art Pictures Vision, Black Box Production Режиссер: Миша Маралес, Артём Ларин В ролях: Егор Кирячок, Иван Злобин, Илья Сигалов, Виталий Хаев, Николай Добрынин, Владимир Стержаков, Елена Валюшкина, Сергей Чирков, Тина Стойилкович, Сергей Рост, Максим Литовченко, Артём Бобцов, Артём Муратов, Ульяна Молдованова, Светлана Листова О фильме: Детдомовца Тимофея, бабника Севу и неженку Валика, который и шага не сделает без матери, отправляют в цирк на исправительные работы. Выполнять нестандартные задачи тройка нарушителей будет под присмотром директора, завхоза, бывшего моряка, дрессировщика-мачо, иллюзиониста-мажора и других цирковых. Парням предстоит найти сбежавшего слона, стать мишенью метательницы ножей и жертвой фокусника, летать под куполом, убегать от разъярённых тигра и медведя и совершать другие безумства. Файл Формат: MKV Качество: WEB-DL 1080p Видео: MPEG-4 AVC, ~ 3800 Кбит/с, 1920x1080 Аудио: AC3, 2 ch, 192 Кбит/с Продолжительность: ~ 00:24:00 Язык: Русский Субтитры: Нет
[+] MIGeneral Unique ID : 106338218560041740165905638912053974353 (0x4FFFFEF5A5551029B1C58C2602B39551) Complete name : W:Tcirk.S01.WEB-DL.1080p.MrMittensTcirk.S01.E01.WEB-DL.1080p.MrMittens.mkv Format : Matroska Format version : Version 4 / Version 2 File size : 721 MiB Duration : 24 min 45 s Overall bit rate : 4 070 kb/s Encoded date : UTC 2024-04-01 16:49:35 Writing application : mkvmerge v43.0.0 ('The Quartermaster') 64-bit Writing library : libebml v1.3.10 + libmatroska v1.5.2 Video ID : 1 Format : AVC Format/Info : Advanced Video Codec Format profile : High@L4.1 Format settings : CABAC / 4 Ref Frames Format settings, CABAC : Yes Format settings, ReFrames : 4 frames Format settings, GOP : M=4, N=50 Codec ID : V_MPEG4/ISO/AVC Duration : 24 min 45 s Bit rate : 3 876 kb/s Width : 1 920 pixels Height : 1 080 pixels Display aspect ratio : 16:9 Frame rate mode : Constant Frame rate : 25.000 FPS Standard : PAL Color space : YUV Chroma subsampling : 4:2:0 Bit depth : 8 bits Scan type : Progressive Bits/(Pixel*Frame) : 0.075 Stream size : 687 MiB (95%) Language : English Default : Yes Forced : No Color range : Limited Color primaries : BT.709 Transfer characteristics : BT.709 Matrix coefficients : BT.709 Audio ID : 2 Format : AC-3 Format/Info : Audio Coding 3 Codec ID : A_AC3 Duration : 24 min 45 s Bit rate mode : Constant Bit rate : 192 kb/s Channel(s) : 2 channels Channel positions : Front: L R Sampling rate : 48.0 kHz Frame rate : 31.250 FPS (1536 SPF) Bit depth : 16 bits Compression mode : Lossy Stream size : 34.0 MiB (5%) Language : Russian Service kind : Complete Main Default : Yes Forced : No
[+] Скриншоты

Всего файлов в раздаче: 9 
Tcirk.S01.E01.WEB-DL.1080p.MrMittens.mkv720.86 MB
Tcirk.S01.E02.WEB-DL.1080p.MrMittens.mkv705.05 MB
Tcirk.S01.E03.WEB-DL.1080p.MrMittens.mkv730.98 MB
Tcirk.S01.E04.WEB-DL.1080p.MrMittens.mkv661.19 MB
Tcirk.S01.E05.WEB-DL.1080p.MrMittens.mkv733.98 MB
Tcirk.S01.E06.WEB-DL.1080p.MrMittens.mkv733.24 MB
Tcirk.S01.E07.WEB-DL.1080p.MrMittens.mkv721.38 MB
Tcirk.S01.E08.WEB-DL.1080p.MrMittens.mkv711.10 MB
Tcirk.S01.E09.WEB-DL.1080p.MrMittens.mkv748.19 MB

Похожие раздачи по запросу - Цирк!
2024-04-08 magnet Цирк! / Сальто-мортале [S01] (2024) WEB-DLRip-AVC от Generalfilm | КПК 1.88 GB ↑ 0 ↓ 0
2024-04-05 magnet Цирк! (Сальто-мортале) [01] (2024) WEB-DLRip-AVC от Files-x 5.31 GB ↑ 0 ↓ 0
2024-04-05 magnet Цирк! / Сальто-мортале [S01] (2024) WEB-DL 1080p 1К15.72 GB ↑ 0 ↓ 0
2024-04-05 magnet Цирк! / Сальто-мортале [S01] (2024) WEB-DL 1080p 1К11.96 GB ↑ 0 ↓ 0
2024-04-05 magnet Цирк! (Сальто-мортале) [01х01-17 из 17] (2024) WEB-DLRip от Files-x 5.24 GB ↑ 0 ↓ 0
2024-04-05 magnet Цирк! (Сальто-мортале) [01х01-17 из 17] (2024) WEB-DL 720p от Files-x 6.68 GB ↑ 0 ↓ 0
2024-04-04 magnet Цирк! / Сальто-мортале [01-13 из 17] (2024) WEB-DL 1080p 9.14 GB ↑ 0 ↓ 0

Комментарии


Зарегистрируйтесь чтобы добавить комментарий
Торрент клиент
byTorrent - программа для загрузки торрент-файлов.

Скачать byTorrent.exe (1,5 МБ)

Скачать byTorrent.zip (0,6 МБ)

Поддержи torrent.by
российских рублей
(300 российских рублей это 4$)

Обратная связь rss

End game ©