↑↓torrent.by
Поиск
Логин:  Регистрация
Пароль:

Дикое сердце / Ponyherz / Wild Heart (2023) BDRip 1080p от MegaPeer | D

download Скачать торрент-файл   magnet Магнитная ссылка Размер: 7.83 GB Добавлен: 2024-04-03 05:00
Пиры будут получены из сети DHT
Последний сидер был замечен 2024-04-10 12:34
Информация Название: Дикое сердце Оригинальное название: Ponyherz / Wild Heart Год выхода: 2023 Жанр: Приключения, семейный Режиссер: Маркус Дитрих В ролях: Марта Хаберланд, Франц Фердинанд Краузе, Фелиция Труби, Йолина Амели Тринкс, Петер Ломайер, Софи Лутс, Анна Шудт, Дитер Халлерворден, Нилам Фарук, Кристоф Летковски Описание: Энни только что переехала в новый город, и у нее совсем нет друзей. Но вскоре она обзаводится очень необычным и верным приятелем — дикой лошадью с добрым сердцем. Связь между девочкой и животным становится очень прочной, но браконьеры крадут его. Теперь Энни должна заручиться помощью одноклассников и попытаться спасти своего друга из рук преступников. Страна: Германия Студия: Riva Film Продолжительность: 01:40:15 Перевод: Профессиональный (полное дублирование) | Велес *** В русском дубляже (WEBDL) отсутствуют несколько сцен (~90 сек.) по сравнению с Blu-ray, переведено русскими форсированными субтитрами Файл Качество: BDRip 1080p Исходник: Ponyherz a.k.a. Wild Heart 2023 1080p Blu-ray Remux AVC DTS-HD MA 5.1 - KRaLiMaRKo Формат: MKV Кодек: MPEG-4 AVC Видео: 1920x804 (2.40:1), 24 fps, MPEG-4 AVC ~ 10.2 Mbps avg, 0.275 bit/pixel Аудио: AC3, 48 kHz, 6 ch, ~384.00 kbps avg | русский | DUB | Аудио: AC3, 48 kHz, 6 ch, ~640.00 kbps avg | немецкий | Субтитры: Русские (Forced), Немецкие (SDH)
[+] Инфо-файлОбщее Уникальный идентификатор : 193134803179351572529864955194272773021 (0x914C68FAA6E4787DA94E3BFDA765F39D) Полное имя : Ponyherz.2023.1080p.BluRay.DD.5.1.x264-MegaPeer.mkv Формат : Matroska Версия формата : Version 4 Размер файла : 7,83 Гбайт Продолжительность : 1 ч. 40 мин. Общий битрейт : 11,2 Мбит/сек Частота кадров : 24,000 кадра/сек Название фильма : Дикое сердце / Ponyherz / Wild Heart (2023) от stillet@MegaPeer Дата кодирования : 2024-04-02 12:16:22 UTC Программа кодирования : mkvmerge v15.0.0 ('Duel with the Devil') 64-bit Библиотека кодирования : libebml v1.3.5 + libmatroska v1.4.5 Обложка : Yes Attachments : cover.jpg Видео Идентификатор : 1 Формат : AVC Формат/Информация : Advanced Video Codec Профиль формата : High@L4.1 Настройки формата : CABAC / 5 Ref Frames Параметр CABAC формата : Да Параметр RefFrames формата : 5 кадров Идентификатор кодека : V_MPEG4/ISO/AVC Продолжительность : 1 ч. 40 мин. Битрейт : 10,2 Мбит/сек Ширина : 1 920 пикселей Высота : 804 пикселя Соотношение сторон дисплея : 2,39:1 Режим частоты кадров : Постоянный Частота кадров : 24,000 кадра/сек Цветовое пространство : YUV Цветовая субдискретизация : 4:2:0 Битовая глубина : 8 бит Тип развёртки : Прогрессивная Бит/(Пиксели*Кадры) : 0.275 Размер потока : 7,11 Гбайт (91%) Библиотека кодирования : x264 core 164 r3156+57M stillet t_mod_New Параметры библиотеки кодирования : cabac=1 / ref=5 / deblock=1:-3:-3 / analyse=0x3:0x113 / me=umh / subme=10 / psy=1 / fade_compensate=0.00 / psy_rd=1.03:0.02 / mixed_ref=1 / me_range=32 / chroma_me=1 / trellis=2 / 8x8dct=1 / cqm=0 / deadzone=21,11 / fast_pskip=0 / chroma_qp_offset=-3 / threads=12 / lookahead_threads=3 / sliced_threads=0 / nr=0 / decimate=0 / interlaced=0 / bluray_compat=0 / constrained_intra=0 / fgo=0 / bframes=11 / b_pyramid=2 / b_adapt=2 / b_bias=0 / direct=3 / weightb=1 / open_gop=0 / weightp=2 / keyint=240 / keyint_min=24 / scenecut=40 / intra_refresh=0 / rc_lookahead=40 / rc=2pass / mbtree=0 / bitrate=10200 / ratetol=1.0 / qcomp=0.60 / qpmin=0:0:0 / qpmax=69:69:69 / qpstep=4 / cplxblur=20.0 / qblur=0.5 / vbv_maxrate=50000 / vbv_bufsize=62500 / nal_hrd=none / filler=0 / ip_ratio=1.40 / pb_ratio=1.30 / aq=1:1.10 / aq-sensitivity=10.00 / aq-factor=1.00:1.00:1.00 / aq2=0 / aq3=0 Язык : Немецкий По умолчанию : Да Принудительно : Нет Аудио #1 Идентификатор : 2 Формат : AC-3 Формат/Информация : Audio Coding 3 Коммерческое название : Dolby Digital Идентификатор кодека : A_AC3 Продолжительность : 1 ч. 40 мин. Вид битрейта : Постоянный Битрейт : 384 Кбит/сек Канал(-ы) : 6 каналов Расположение каналов : L R C LFE Ls Rs Частота дискретизации : 48,0 КГц Частота кадров : 31,250 кадров/сек (1536 SPF) Метод сжатия : С потерями Размер потока : 275 Мбайт (3%) Заголовок : DUB | Велес Язык : Русский Вид сервиса : Complete Main По умолчанию : Да Принудительно : Нет Аудио #2 Идентификатор : 3 Формат : AC-3 Формат/Информация : Audio Coding 3 Коммерческое название : Dolby Digital Идентификатор кодека : A_AC3 Продолжительность : 1 ч. 40 мин. Вид битрейта : Постоянный Битрейт : 640 Кбит/сек Канал(-ы) : 6 каналов Расположение каналов : L R C LFE Ls Rs Частота дискретизации : 48,0 КГц Частота кадров : 31,250 кадров/сек (1536 SPF) Метод сжатия : С потерями Размер потока : 459 Мбайт (6%) Язык : Немецкий Вид сервиса : Complete Main По умолчанию : Нет Принудительно : Нет Текст #1 Идентификатор : 4 Формат : UTF-8 Идентификатор кодека : S_TEXT/UTF8 Идентификатор кодека/Информация : UTF-8 Plain Text Продолжительность : 26 мин. 16 с. Битрейт : 8 бит/сек Частота кадров : 0,015 кадр/сек Число элементов : 23 Размер потока : 1,56 КиБ (0%) Заголовок : Forced Язык : Русский По умолчанию : Да Принудительно : Да Текст #2 Идентификатор : 5 Формат : UTF-8 Идентификатор кодека : S_TEXT/UTF8 Идентификатор кодека/Информация : UTF-8 Plain Text Продолжительность : 1 ч. 31 мин. Битрейт : 54 бит/сек Частота кадров : 0,229 кадр/сек Число элементов : 1259 Размер потока : 36,4 КиБ (0%) Заголовок : SDH Язык : Немецкий По умолчанию : Нет Принудительно : Нет Меню 00:00:00.000 : Chapter 01 00:07:58.083 : Chapter 02 00:15:12.167 : Chapter 03 00:22:28.875 : Chapter 04 00:31:22.000 : Chapter 05 00:38:42.042 : Chapter 06 00:45:47.667 : Chapter 07 00:51:43.833 : Chapter 08 00:59:21.333 : Chapter 09 01:06:57.917 : Chapter 10 01:16:14.292 : Chapter 11 01:21:58.500 : Chapter 12 01:32:25.625 : Chapter 13
Релиз:

Всего файлов в раздаче: 1 
Ponyherz.2023.1080p.BluRay.DD.5.1.x264-MegaPeer.mkv7.83 GB

Похожие раздачи по запросу - Дикое
2024-04-03 magnet Дикое сердце / Ponyherz / Wild Heart (2023) BDRip 720p от MegaPeer | D 3.66 GB ↑ 0 ↓ 0
2024-04-03 magnet Дикое сердце / Ponyherz / Wild Heart (2023) HDRip-AVC от DoMiNo & селезень | D 1.46 GB ↑ 0 ↓ 1
2024-04-03 magnet Дикое сердце / Ponyherz / Wild Heart (2023) BDRip от MegaPeer | D 1.46 GB ↑ 0 ↓ 0
2024-03-23 magnet Афина - Дикое танго (2024) MP3 102.26 MB ↑ 0 ↓ 0

Комментарии


Зарегистрируйтесь чтобы добавить комментарий
Торрент клиент
byTorrent - программа для загрузки торрент-файлов.

Скачать byTorrent.exe (1,5 МБ)

Скачать byTorrent.zip (0,6 МБ)

Поддержи torrent.by
российских рублей
(300 российских рублей это 4$)

Обратная связь rss

End game ©