↑↓torrent.by
Поиск
Логин:  Регистрация
Пароль:

Дрожь земли. Апокалипсис / It Crawls Beneath / They Crawl Beneath (2022) BDRip 1080p от ELEKTRI4KA | D

download Скачать торрент-файл   magnet Магнитная ссылка Размер: 7.91 GB Добавлен: 2024-04-03 05:00
Пиры будут получены из сети DHT
Последний сидер был замечен 2024-04-05 11:20
«В результате землетрясения Дэнни оказывается запертым в гараже, а из-под земли начинают появляться страшные твари» Информация о фильме Название: Дрожь земли. Апокалипсис Оригинальное название: It Crawls Beneath / They Crawl Beneath Год выхода: 2022 Жанр: ужасы Режиссер: Дэйл Фабригар В ролях: Джозеф Алмани, Кэрли Элдридж, Артур Робертс, Елена Сахагун, Наталия Альварес-Бильбао, Брайан ДеРозан, Алек Гейлорд, Кристофер М. Дьюкс, Гар-Йе Ли О фильме: Офицер Дэнни в свой выходной решает сделать доброе дело — отправиться к дяде в гараж, чтобы помочь ему починить автомобиль. За шутками и терапевтическими диалогами они приятно проводят время до того момента, как земля начинает буквально вылетать у них из-под ног. В результате Дэнни оказывается в ловушке: дверь в гараж заблокирована, а из появившихся в земле трещин вылезают то ли личинки, то ли змеи. И теперь ему предстоит вступить с ними в жестокую борьбу за свою жизнь и рассудок. К счастью, его бывшая девушка — биолог, причем с большими связями, она точно поможет найти средство для борьбы со здоровенными тварями, появляющимися из омерзительных личинок. Выпущено: США / Suzanne De, Laurentiis Productions Продолжительность: 01:27:24 Озвучивание: Дублированное | MOYGOLOS Файл Формат: MKV Качество: BDRip 1080p Видео: MPEG-4 AVC, 11.6 Mb/s, 1920х804 Аудио: Russian: AC3, 384 Kb/s (6 ch) / E-AC3, 384 Kb/s (6 ch), English: AC3, 640 Kb/s (6 ch) Субтитры: Нет. Дополнительно: Сохранены оригинальные чаптеры. Релиз группы:  | Мы в Telegram:
[+] Инфо-файл:Complete name: Drozh.zemli.Apokalipsis.2022.BDRip.1080p.ELEKTRI4KA.mkv Format: Matroska Format version: Version 4 File size: 7.91 GiB Duration: 1 h 27 min Overall bit rate: 13.0 Mb/s Movie name: Drozh.zemli.Apokalipsis.2022.D.BDRip.1080p.ELEKTRI4KA. Encoded date: UTC 2024-04-02 13:57:37 Writing application: mkvmerge v8.3.0 ('Over the Horizon') 64bit Writing library: libebml v1.3.1 + libmatroska v1.4.2 Video ID: 1 Format: AVC Format/Info: Advanced Video Codec Format profile: High@L4.1 Format settings: CABAC / 5 Ref Frames Format settings, CABAC: Yes Format settings, Reference frames: 5 frames Codec ID: V_MPEG4/ISO/AVC Duration: 1 h 27 min Bit rate: 11.6 Mb/s Width: 1 920 pixels Height: 804 pixels Display aspect ratio: 2.40:1 Frame rate mode: Constant Frame rate: 23.976 (24000/1001) FPS Color space: YUV Chroma subsampling: 4:2:0 Bit depth: 8 bits Scan type: Progressive Bits/(Pixel*Frame): 0.312 Stream size: 7.06 GiB (89%) Writing library: x264 core 157 r2958 57baac4 Encoding settings: cabac=1 / ref=5 / deblock=1:-3:-3 / analyse=0x3:0x113 / me=umh / subme=10 / psy=1 / psy_rd=1.00:0.00 / mixed_ref=1 / me_range=32 / chroma_me=1 / trellis=2 / 8x8dct=1 / cqm=0 / deadzone=21, 11 / fast_pskip=0 / chroma_qp_offset=-2 / threads=49 / lookahead_threads=6 / sliced_threads=0 / nr=0 / decimate=0 / interlaced=0 / bluray_compat=0 / constrained_intra=0 / bframes=10 / b_pyramid=2 / b_adapt=2 / b_bias=0 / direct=3 / weightb=1 / open_gop=0 / weightp=2 / keyint=240 / keyint_min=24 / scenecut=40 / intra_refresh=0 / rc=2pass / mbtree=0 / bitrate=11563 / ratetol=1.0 / qcomp=0.60 / qpmin=0 / qpmax=69 / qpstep=4 / cplxblur=20.0 / qblur=0.5 / ip_ratio=1.40 / pb_ratio=1.30 / aq=1:1.00 Default: Yes Forced: No Audio #1 ID: 2 Format: AC-3 Format/Info: Audio Coding 3 Commercial name: Dolby Digital Codec ID: A_AC3 Duration: 1 h 26 min Bit rate mode: Constant Bit rate: 384 kb/s Channel(s): 6 channels Channel layout: L R C LFE Ls Rs Sampling rate: 48.0 kHz Frame rate: 31.250 FPS (1536 SPF) Compression mode: Lossy Stream size: 238 MiB (3%) Title: DUB AC3 (MOYGOLOS) Language: Russian Service kind: Complete Main Default: Yes Forced: Yes Audio #2 ID: 3 Format: E-AC-3 Format/Info: Enhanced AC-3 Commercial name: Dolby Digital Plus Codec ID: A_EAC3 Duration: 1 h 26 min Bit rate mode: Constant Bit rate: 384 kb/s Channel(s): 6 channels Channel layout: L R C LFE Ls Rs Sampling rate: 48.0 kHz Frame rate: 31.250 FPS (1536 SPF) Compression mode: Lossy Stream size: 238 MiB (3%) Title: DUB EAC3 (MOYGOLOS) Language: Russian Service kind: Complete Main Default: No Forced: No Audio #3 ID: 4 Format: AC-3 Format/Info: Audio Coding 3 Commercial name: Dolby Digital Codec ID: A_AC3 Duration: 1 h 27 min Bit rate mode: Constant Bit rate: 640 kb/s Channel(s): 6 channels Channel layout: L R C LFE Ls Rs Sampling rate: 48.0 kHz Frame rate: 31.250 FPS (1536 SPF) Compression mode: Lossy Stream size: 400 MiB (5%) Title: Original Language: English Service kind: Complete Main Default: No Forced: No Menu 00:00:00.000: :Chapter 01 00:06:06.157: :Chapter 02 00:17:36.555: :Chapter 03 00:22:39.149: :Chapter 04 00:30:57.814: :Chapter 05 00:39:41.045: :Chapter 06 00:51:11.193: :Chapter 07 01:01:40.488: :Chapter 08 01:12:46.612: :Chapter 09 01:20:30.242: :Chapter 10
[+] Скриншоты

Всего файлов в раздаче: 1 
Drozh.zemli.Apokalipsis.2022.BDRip.1080p.ELEKTRI4KA.mkv7.91 GB

Похожие раздачи по запросу - Дрожь
2024-04-03 magnet Дрожь земли. Апокалипсис / It Crawls Beneath / They Crawl Beneath (2022) BDRip от ELEKTRI4KA | D 1.44 GB ↑ 1 ↓ 0
2024-04-03 magnet Дрожь земли. Апокалипсис / It Crawls Beneath / They Crawl Beneath (2022) BDRip 720p от ELEKTRI4KA | D 4.11 GB ↑ 1 ↓ 0

Комментарии


Зарегистрируйтесь чтобы добавить комментарий
Торрент клиент
byTorrent - программа для загрузки торрент-файлов.

Скачать byTorrent.exe (1,5 МБ)

Скачать byTorrent.zip (0,6 МБ)

Поддержи torrent.by
российских рублей
(300 российских рублей это 4$)

Обратная связь rss

End game ©