↑↓torrent.by
Поиск
Логин:  Регистрация
Пароль:

Four Tet - Three [24-bit Hi-Res] (2024) FLAC

download Скачать торрент-файл   magnet Магнитная ссылка Размер: 476.13 MB Добавлен: 2024-04-03 11:00
Пиры будут получены из сети DHT
Последний сидер был замечен 2024-04-03 11:00
Название: Three Исполнитель: Four Tet Год: 2024 Жанр: Electronic, Ambient Издатель (лейбл): Text Records Продолжительность: 00:44:54 Формат/Кодек: FLAC Тип рипа: Tracks Битрейт аудио: Lossless Разрядность: 24 Bit/44,1 kHz
[+] Трек-лист 01. Loved (00:04:03) 02. Gliding Through Everything (00:04:08) 03. Storm Crystals (00:06:40) 04. Daydream Repeat (00:06:09) 05. Skater (00:04:16) 06. 31 Bloom (00:05:52) 07. So Blue (00:05:30) 08. Three Drums (00:08:16)
[+] DRM foobar2000 1.5.5 / Замер динамического диапазона (DR) 1.1.1 ------------------------------------------------------------------------------- Анализ: Four Tet / Three -------------------------------------------------------------------------------- DR Пики RMS Продолжительность трека -------------------------------------------------------------------------------- DR7 -0.03 дБ -9.13 дБ 4:03 01-Loved DR9 -0.05 дБ -12.44 дБ 4:08 02-Gliding Through Everything DR7 -0.16 дБ -9.65 дБ 6:40 03-Storm Crystals DR8 -0.11 дБ -10.33 дБ 6:09 04-Daydream Repeat DR7 -0.11 дБ -9.15 дБ 4:16 05-Skater DR8 -0.01 дБ -10.00 дБ 5:52 06-31 Bloom DR8 -0.04 дБ -10.04 дБ 5:30 07-So Blue DR7 -0.14 дБ -10.10 дБ 8:16 08-Three Drums -------------------------------------------------------------------------------- Количество треков: 8 Реальные значения DR: DR8 Частота: 44100 Гц Каналов: 2 Разрядность: 24 Битрейт: 1561 кбит/с Кодек: FLAC ================================================================================
Время раздачи: 24/7 (минимум до появления первых 3-5 скачавших, на раздачи не возвращаюсь) Первое правило участника файлообмена: "Скачал сам - дай скачать другому!"

Всего файлов в раздаче: 9 
01. Loved.flac42.64 MB
02. Gliding Through Everything.flac35.85 MB
03. Storm Crystals.flac68.82 MB
04. Daydream Repeat.flac74.44 MB
05. Skater.flac48.61 MB
06. 31 Bloom.flac58.70 MB
07. So Blue.flac54.45 MB
08. Three Drums.flac92.51 MB
cover.jpg114.71 kB

Комментарии


Зарегистрируйтесь чтобы добавить комментарий
Торрент клиент
byTorrent - программа для загрузки торрент-файлов.

Скачать byTorrent.exe (1,5 МБ)

Скачать byTorrent.zip (0,6 МБ)

Поддержи torrent.by
российских рублей
(300 российских рублей это 4$)

Обратная связь rss

End game ©