↑↓torrent.by
Поиск
Логин:  Регистрация
Пароль:

Мужчина в моей голове (2009) WEB-DL 1080p

download Скачать торрент-файл   magnet Магнитная ссылка Размер: 4.18 GB Добавлен: 2024-04-03 11:00
Пиры будут получены из сети DHT
Последний сидер был замечен 2024-04-04 12:34
Информация о фильме Название: Мужчина в моей голове Год выхода: 2009 Жанр: Комедия Режиссер: Алексей Пиманов В ролях: Ольга Погодина, Андрей Чернышов, Алексей Серебряков, Ольга Медынич, Василий Брыков, Анна Якунина, Егор Баринов, Александр Жулин, Андрей Державин, Игорь Верник, Игорь Угольников О фильме: Действие происходит в предновогодней Москве. Женщина, упав на катке, теряет сознание и оказывается в больнице. Придя в себя, она чувствует, что у неё в голове поселился неизвестный мужчина. Они начинают общаться: ссорятся, мирятся, советуются. Наконец, она влюбляется в него, а он исчезает. В то же время в больнице приходит в сознание известный телеведущий... Страна: Россия Студия: «Oda-film» Продолжительность: 01:56:18 Файл Кодек: h.264 Качество: WEB-DL 1080p Видео: AVC, 1920x1080, ~5000 kbps Звук: AAC, 2 ch, 192 Kbps Субтитры: Отсутствуют
[+] MediaInfo:General Unique ID: 262909198819271165919370307202804877788 (0xC5CA784924DE769DBE2ABA5DED1009DC) Complete name: Мужчина в моей голове 2009 1080p.mkv Format: Matroska Format version: Version 4 File size: 4.18 GiB Duration: 1 h 56 min Overall bit rate: 5 197 kb/s Frame rate: 25.000 FPS Encoded date: 2024-04-02 16:05:25 UTC Writing application: mkvmerge v77.0 ('Elemental') 64-bit Writing library: libebml v1.4.4 + libmatroska v1.7.1 Video ID: 1 Format: AVC Format/Info: Advanced Video Codec Format profile: High@L4.1 Format settings: CABAC / 5 Ref Frames Format settings, CABAC: Yes Format settings, Reference: 5 frames Codec ID: V_MPEG4/ISO/AVC Duration: 1 h 56 min Bit rate: 5 000 kb/s Width: 1 920 pixels Height: 1 080 pixels Display aspect ratio: 16:9 Frame rate mode: Constant Frame rate: 25.000 FPS Color space: YUV Chroma subsampling: 4:2:0 Bit depth: 8 bits Scan type: Progressive Bits/(Pixel*Frame): 0.096 Stream size: 4.07 GiB (97%) Writing library: x264 core 148 Encoding settings: cabac=1 / ref=5 / deblock=1:0:0 / analyse=0x3:0x113 / me=hex / subme=8 / psy=1 / psy_rd=1.00:0.00 / mixed_ref=1 / me_range=16 / chroma_me=1 / trellis=2 / 8x8dct=1 / cqm=0 / deadzone=21, 11 / fast_pskip=1 / chroma_qp_offset=-2 / threads=34 / lookahead_threads=5 / sliced_threads=0 / nr=0 / decimate=1 / interlaced=0 / bluray_compat=0 / constrained_intra=0 / bframes=3 / b_pyramid=2 / b_adapt=1 / b_bias=0 / direct=3 / weightb=1 / open_gop=0 / weightp=2 / keyint=250 / keyint_min=25 / scenecut=0 / intra_refresh=0 / rc_lookahead=50 / rc=abr / mbtree=1 / bitrate=5000 / ratetol=1.0 / qcomp=0.60 / qpmin=0 / qpmax=69 / qpstep=4 / ip_ratio=1.40 / aq=1:1.00 Default: Yes Forced: No Audio ID: 2 Format: AAC LC Codec ID: A_AAC-2 Duration: 1 h 56 min Bit rate: 192 kb/s Channel(s): 2 channels Channel layout: L R Sampling rate: 44.1 kHz Frame rate: 43.066 FPS (1024 SPF) Compression mode: Lossy Delay relative to video: -80 ms Stream size: 106 MiB (2%) Default: Yes Forced: No
[+] Скриншоты

Всего файлов в раздаче: 1 
Мужчина в моей голове 2009 1080p.mkv4.18 GB

Похожие раздачи по запросу - Мужчина
2024-02-25 magnet Другой мужчина [01-04 из 04] (2023) HDTVRip от Generalfilm | КПК 739.43 MB ↑ 0 ↓ 0
2024-01-16 magnet Мужчина к Новому году (2023) WEB-DL 1080p 3.42 GB ↑ 0 ↓ 0
2023-10-23 magnet Мужчина, который не хочет на мне жениться [S01] (2023) WEB-DLRip от Files-x 2.43 GB ↑ 0 ↓ 0

Комментарии


Зарегистрируйтесь чтобы добавить комментарий
Торрент клиент
byTorrent - программа для загрузки торрент-файлов.

Скачать byTorrent.exe (1,5 МБ)

Скачать byTorrent.zip (0,6 МБ)

Поддержи torrent.by
российских рублей
(300 российских рублей это 4$)

Обратная связь rss

End game ©