↑↓torrent.by
Поиск
Логин:  Регистрация
Пароль:

Корабль призраков / Haunting of the Queen Mary (2023) BDRip 1080p от селезень | D

download Скачать торрент-файл   magnet Магнитная ссылка Размер: 9.51 GB Добавлен: 2024-04-03 11:00
Пиры будут получены из сети DHT
Последний сидер был замечен 2024-04-10 20:05
Информация о фильме Название: Корабль призраков Оригинальное название: Haunting of the Queen Mary Год выхода: 2023 Жанр: Ужасы, драма Режиссер: Гари Шор В ролях: Элис Ив, Джоэль Фрай, Нелл Хадсон, Ленни Раш, Уильям Шокли, Тим Дауни, Энгус Райт, Джим Пиддок, Джоэль Коисси, Марк Силверман, Альфредо Таварес О фильме: В Хэллоуинскую ночь 1938 года во время семейного круиза происходят загадочные и страшные события. Мистическим образом произошедшее связано с судьбой другой семьи, путешествующей на том же океанском лайнере, но уже в наше время. «Корабль призраков» — фильм ужасов с Элис Ив в главной роли. Страна: США, Великобритания Студия: BCP Asset Management, Creativity Capital, Fulwell 73 Продолжительность: 02:04:55 Перевод: Дублированный | Мосфильм-Мастер Качество: BDRip 1080p Видео: MPEG-4 AVC, 1920x960, 10000 Kbit/s, 23.976 fps Аудио #01: 48 kHz, AC3, 5.1, 448 Kbps | Дублированный | Мосфильм-Мастер | RUS | Аудио #02: 48 kHz, AC3, 5.1, 448 Kbps | Оригинал | ENG | Субтитры: Русские (Forced, Full), Английские (Full, SDH)
[+] MIGeneral Unique ID : 79851835370599991527741959811617054457 (0x3C12E77224E86C32AE52589AAC48DEF9) Complete name : H:VideoHHaunting.of.the.Queen.Mary.2023.DUB.BDRip.1080p.x264.seleZen.mkv Format : Matroska Format version : Version 4 File size : 9.51 GiB Duration : 2 h 5 min Overall bit rate : 10.9 Mb/s Frame rate : 23.976 FPS Movie name : Haunting.of.the.Queen.Mary.2023.DUB.BDRip.1080p.x264.seleZen Encoded date : 2024-04-03 07:16:10 UTC Writing application : mkvmerge v80.0 ('Roundabout') 64-bit Writing library : libebml v1.4.4 + libmatroska v1.7.1 Cover : Yes Attachments : cover.jpg / small_cover.jpg Video ID : 1 Format : AVC Format/Info : Advanced Video Codec Format profile : High@L4.1 Format settings : CABAC / 4 Ref Frames Format settings, CABAC : Yes Format settings, Reference : 4 frames Codec ID : V_MPEG4/ISO/AVC Duration : 2 h 4 min Bit rate : 10 000 kb/s Width : 1 920 pixels Height : 960 pixels Display aspect ratio : 2.000 Frame rate mode : Constant Frame rate : 23.976 (24000/1001) FPS Color space : YUV Chroma subsampling : 4:2:0 Bit depth : 8 bits Scan type : Progressive Bits/(Pixel*Frame) : 0.226 Stream size : 8.72 GiB (92%) Writing library : x264 core 164 r3164 seleZen Encoding settings : cabac=1 / ref=4 / deblock=1:-2:-2 / analyse=0x3:0x133 / me=umh / subme=11 / psy=1 / psy_rd=1.02:0.03 / mixed_ref=1 / me_range=48 / chroma_me=1 / trellis=2 / 8x8dct=1 / cqm=0 / deadzone=21,11 / fast_pskip=0 / chroma_qp_offset=-3 / threads=30 / lookahead_threads=7 / sliced_threads=0 / nr=0 / decimate=0 / interlaced=0 / bluray_compat=0 / constrained_intra=0 / bframes=10 / b_pyramid=2 / b_adapt=2 / b_bias=0 / direct=3 / weightb=1 / open_gop=0 / weightp=2 / keyint=240 / keyint_min=23 / scenecut=40 / intra_refresh=0 / rc_lookahead=60 / rc=2pass / mbtree=0 / bitrate=10000 / ratetol=1.0 / qcomp=0.60 / qpmin=0 / qpmax=51 / qpstep=4 / cplxblur=20.0 / qblur=0.5 / vbv_maxrate=50000 / vbv_bufsize=62500 / nal_hrd=none / filler=0 / ip_ratio=1.40 / pb_ratio=1.30 / aq=3:0.80 Language : English Default : Yes Forced : No Audio #1 ID : 2 Format : AC-3 Format/Info : Audio Coding 3 Commercial name : Dolby Digital Codec ID : A_AC3 Duration : 2 h 5 min Bit rate mode : Constant Bit rate : 448 kb/s Channel(s) : 6 channels Channel layout : L R C LFE Ls Rs Sampling rate : 48.0 kHz Frame rate : 31.250 FPS (1536 SPF) Compression mode : Lossy Stream size : 401 MiB (4%) Title : Дублированный | Мосфильм-Мастер Language : Russian Service kind : Complete Main Default : Yes Forced : No Audio #2 ID : 3 Format : AC-3 Format/Info : Audio Coding 3 Commercial name : Dolby Digital Codec ID : A_AC3 Duration : 2 h 4 min Bit rate mode : Constant Bit rate : 448 kb/s Channel(s) : 6 channels Channel layout : L R C LFE Ls Rs Sampling rate : 48.0 kHz Frame rate : 31.250 FPS (1536 SPF) Compression mode : Lossy Stream size : 400 MiB (4%) Title : Original Language : English Service kind : Complete Main Default : No Forced : No Text #1 ID : 4 Format : UTF-8 Codec ID : S_TEXT/UTF8 Codec ID/Info : UTF-8 Plain Text Duration : 1 h 54 min Bit rate : 1 b/s Frame rate : 0.004 FPS Count of elements : 25 Stream size : 1.16 KiB (0%) Title : Forced Language : Russian Default : No Forced : No Text #2 ID : 5 Format : UTF-8 Codec ID : S_TEXT/UTF8 Codec ID/Info : UTF-8 Plain Text Duration : 1 h 55 min Bit rate : 78 b/s Frame rate : 0.204 FPS Count of elements : 1416 Stream size : 66.3 KiB (0%) Title : Full Language : Russian Default : No Forced : No Text #3 ID : 6 Format : UTF-8 Codec ID : S_TEXT/UTF8 Codec ID/Info : UTF-8 Plain Text Duration : 1 h 54 min Bit rate : 48 b/s Frame rate : 0.194 FPS Count of elements : 1335 Stream size : 40.4 KiB (0%) Title : Full Language : English Default : No Forced : No Text #4 ID : 7 Format : UTF-8 Codec ID : S_TEXT/UTF8 Codec ID/Info : UTF-8 Plain Text Duration : 1 h 56 min Bit rate : 63 b/s Frame rate : 0.267 FPS Count of elements : 1862 Stream size : 54.1 KiB (0%) Title : SDH Language : English Default : No Forced : No Menu 00:00:00.000 : en:Chapter 01 00:12:55.399 : en:Chapter 02 00:22:51.953 : en:Chapter 03 00:31:40.023 : en:Chapter 04 00:43:37.823 : en:Chapter 05 00:54:13.750 : en:Chapter 06 01:05:25.421 : en:Chapter 07 01:14:28.297 : en:Chapter 08 01:24:07.792 : en:Chapter 09 01:33:24.640 : en:Chapter 10 01:47:44.666 : en:Chapter 11 01:56:12.298 : en:Chapter 12
Релиз: Присоединяйся к: Кликай на баннеры.

Всего файлов в раздаче: 1 
Haunting.of.the.Queen.Mary.2023.DUB.BDRip.1080p.x264.seleZen.mkv9.51 GB

Похожие раздачи по запросу - Корабль
2024-03-31 magnet Корабль призраков / Haunting of the Queen Mary (2023) BDRemux 1080p | D 30.71 GB ↑ 1 ↓ 0
2024-03-30 magnet Корабль-призрак / Ghost Ship (2002) BDRip 720p от DoMiNo & селезень | D 5.24 GB ↑ 0 ↓ 0
2024-03-30 magnet Корабль призраков / Haunting of the Queen Mary (2023) BDRip от toxics & селезень | D 1.46 GB ↑ 1 ↓ 0
2024-03-30 magnet Корабль призраков / Haunting of the Queen Mary (2023) BDRip 720p от DoMiNo & селезень | D 4.03 GB ↑ 0 ↓ 0
2024-03-29 magnet Корабль призраков / Haunting of the Queen Mary (2023) BDRip от MegaPeer | D 1.46 GB ↑ 0 ↓ 0
2024-03-28 magnet Летучий корабль (1979) WEBRip 1080p от DoMiNo 725.36 MB ↑ 0 ↓ 0

Комментарии


Зарегистрируйтесь чтобы добавить комментарий
Торрент клиент
byTorrent - программа для загрузки торрент-файлов.

Скачать byTorrent.exe (1,5 МБ)

Скачать byTorrent.zip (0,6 МБ)

Поддержи torrent.by
российских рублей
(300 российских рублей это 4$)

Обратная связь rss

End game ©