↑↓torrent.by
Поиск
Логин:  Регистрация
Пароль:

Проклятие. Ночь страха / You Are Not My Mother (2021) BDRip-AVC от DoMiNo & селезень | A

download Скачать торрент-файл   magnet Магнитная ссылка Размер: 1.63 GB Добавлен: 2024-04-03 17:00
Пиры будут получены из сети DHT
Последний сидер был замечен 2024-04-03 21:09
Информация о фильме Название: Проклятие. Ночь страха Оригинальное название: You Are Not My Mother Год выхода: 2021 Жанр: ужасы, драма Режиссер: Кейт Долан В ролях: Хэйзел Дуп, Кэролин Брекен, Пол Рейд, Джейд Джордан, Джордан Джонс, Ингрид Крейги, Мириам Дэвитт, Мартин О’Салливан О фильме: Незадолго до Хэллоуина прикованная к постели женщина внезапно исчезает и вскоре так же неожиданно объявляется живая и вроде бы здоровая. Но чем ближе День всех святых, тем более странным и пугающим становится её поведение. Чтобы спасти мать и самой остаться в живых, её дочери-подростку предстоит разобраться не только в преданиях родной земли, но и в страшных семейных тайнах. Страна: Ирландия Студия: Bankside Films, Fantastic Films Ltd., Irish Film Board Продолжительность: 01:33:11 Перевод: Авторский (Есарев Дмитрий) Субтитры: Русские (Full), Английские (Full, SDH) Файл Формат: Matroska Качество: BDRip-AVC Видео: 1024x428 at 23.976 fps, x264@L4.1, ~1674 kbps Аудио 1: AC3, 6 ch, ~384 kbps - | Русский | Аудио 2: AC3, 6 ch, ~448 kbps - | Английский | Формат субтитров: softsub (SRT) ***Рип от: -=DoMiNo=-
[+] M/Ix264 : frame I:897 Avg QP:12.93 size: 46041 x264 : frame P:23211 Avg QP:14.01 size: 17836 x264 : frame B:109942 Avg QP:15.68 size: 6498 General Unique ID : 231355115046382824790248350916358974463 (0xAE0D5FD7BA5F227E51FEF13384D02BFF) Complete name : D:You.Are.Not.My.Mother.2021.AVO.BDRip.x264.seleZen.mkv Format : Matroska Format version : Version 4 File size : 1.63 GiB Duration : 1 h 33 min Overall bit rate : 2 508 kb/s Movie name : You.Are.Not.My.Mother.2021.BDRip.x264.seleZen Encoded date : UTC 2022-08-15 19:19:15 Writing application : mkvmerge v70.0.0 ('Caught A Lite Sneeze') 64-bit Writing library : libebml v1.4.2 + libmatroska v1.6.4 Cover : Yes Attachments : cover.jpg / small_cover.jpg Video ID : 1 Format : AVC Format/Info : Advanced Video Codec Format profile : High@L4.1 Format settings : CABAC / 12 Ref Frames Format settings, CABAC : Yes Format settings, Reference : 12 frames Codec ID : V_MPEG4/ISO/AVC Duration : 1 h 33 min Bit rate : 1 674 kb/s Width : 1 024 pixels Height : 428 pixels Display aspect ratio : 2.40:1 Frame rate mode : Constant Frame rate : 23.976 (24000/1001) FPS Color space : YUV Chroma subsampling : 4:2:0 Bit depth : 8 bits Scan type : Progressive Bits/(Pixel*Frame) : 0.159 Stream size : 1.09 GiB (67%) Title : -=DoMiNo=- Writing library : x264 core 164 by -=DoMiNo=- Encoding settings : cabac=1 / ref=12 / deblock=1:-3:-3 / analyse=0x3:0x133 / me=umh / subme=11 / psy=1 / psy_rd=1.03:0.02 / mixed_ref=1 / me_range=32 / chroma_me=1 / trellis=2 / 8x8dct=1 / cqm=0 / deadzone=21,11 / fast_pskip=0 / chroma_qp_offset=-3 / threads=17 / lookahead_threads=3 / sliced_threads=0 / nr=0 / decimate=0 / interlaced=0 / bluray_compat=0 / constrained_intra=0 / bframes=10 / b_pyramid=2 / b_adapt=2 / b_bias=0 / direct=1 / weightb=1 / open_gop=0 / weightp=2 / keyint=250 / keyint_min=23 / scenecut=40 / intra_refresh=0 / rc_lookahead=60 / rc=crf / mbtree=0 / crf=17.5 / qcomp=0.60 / qpmin=0 / qpmax=69 / qpstep=4 / vbv_maxrate=50000 / vbv_bufsize=62500 / crf_max=0.0 / nal_hrd=none / filler=0 / ip_ratio=1.30 / pb_ratio=1.20 / aq=3:0.80 Language : English Default : Yes Forced : No Color range : Limited Color primaries : BT.709 Transfer characteristics : BT.709 Matrix coefficients : BT.709 Audio #1 ID : 2 Format : AC-3 Format/Info : Audio Coding 3 Commercial name : Dolby Digital Codec ID : A_AC3 Duration : 1 h 33 min Bit rate mode : Constant Bit rate : 384 kb/s Channel(s) : 6 channels Channel layout : L R C LFE Ls Rs Sampling rate : 48.0 kHz Frame rate : 31.250 FPS (1536 SPF) Compression mode : Lossy Stream size : 256 MiB (15%) Title : AVO Language : Russian Service kind : Complete Main Default : Yes Forced : Yes Audio #2 ID : 3 Format : AC-3 Format/Info : Audio Coding 3 Commercial name : Dolby Digital Codec ID : A_AC3 Duration : 1 h 33 min Bit rate mode : Constant Bit rate : 448 kb/s Channel(s) : 6 channels Channel layout : L R C LFE Ls Rs Sampling rate : 48.0 kHz Frame rate : 31.250 FPS (1536 SPF) Compression mode : Lossy Stream size : 299 MiB (18%) Title : Original Language : Russian Service kind : Complete Main Default : No Forced : No Text #1 ID : 4 Format : UTF-8 Codec ID : S_TEXT/UTF8 Codec ID/Info : UTF-8 Plain Text Duration : 1 h 26 min Bit rate : 54 b/s Count of elements : 781 Stream size : 34.9 KiB (0%) Title : Full Language : Russian Default : No Forced : No Text #2 ID : 5 Format : UTF-8 Codec ID : S_TEXT/UTF8 Codec ID/Info : UTF-8 Plain Text Duration : 1 h 26 min Bit rate : 34 b/s Count of elements : 775 Stream size : 22.3 KiB (0%) Title : Full Language : English Default : No Forced : No Text #3 ID : 6 Format : UTF-8 Codec ID : S_TEXT/UTF8 Codec ID/Info : UTF-8 Plain Text Duration : 1 h 27 min Bit rate : 40 b/s Count of elements : 941 Stream size : 26.0 KiB (0%) Title : SDH Language : English Default : No Forced : No Menu 00:00:00.000 : :Chapter 01 00:10:05.605 : :Chapter 02 00:18:03.707 : :Chapter 03 00:26:28.587 : :Chapter 04 00:36:28.186 : :Chapter 05 00:46:30.788 : :Chapter 06 00:56:11.368 : :Chapter 07 01:04:55.892 : :Chapter 08 01:13:30.406 : :Chapter 09 01:18:51.727 : :Chapter 10 01:28:44.319 : :Chapter 11
Релиз: Присоединяйся к: Кликай на баннеры.

Всего файлов в раздаче: 1 
You.Are.Not.My.Mother.2021.AVO.BDRip.x264.seleZen.mkv1.63 GB

Похожие раздачи по запросу - Проклятие
2024-04-15 magnet Проклятие. Ночь страха / You Are Not My Mother (2021) BDRip 1080p от MegaPeer | D, A, L2 7.36 GB ↑ 0 ↓ 0
2024-04-15 magnet Проклятие. Ночь страха / You Are Not My Mother (2021) BDRip-AVC от New-Team | D, A 1.60 GB ↑ 0 ↓ 0
2024-04-15 magnet Проклятие. Ночь страха / You Are Not My Mother (2021) BDRip от MegaPeer | D 1.46 GB ↑ 0 ↓ 0
2024-04-05 magnet Пираты Карибского моря: Проклятие Черной жемчужины / Pirates of the Caribbean: The Curse of the Black Pearl (2003) Hybrid 1080p | D | Open Matte | Extended Fan Cut 15.18 GB ↑ 0 ↓ 0
2024-03-06 magnet Александра Лисина - Вильгельм 2. Проклятие Саана (2024) MP3 261.65 MB ↑ 0 ↓ 0
2023-11-09 magnet Проклятие монахини 2 / The Nun II (2023) BDRemux 1080p от селезень | D, P | Лицензия 26.37 GB ↑ 0 ↓ 0
2023-10-04 magnet Проклятие монахини 2 / The Nun II (2023) UHD WEB-DL-HEVC 2160p от селезень | 4K | HDR | Dolby Vision Profile 8 | D | Лицензия 19.95 GB ↑ 1 ↓ 1

Комментарии


Зарегистрируйтесь чтобы добавить комментарий
Торрент клиент
byTorrent - программа для загрузки торрент-файлов.

Скачать byTorrent.exe (1,5 МБ)

Скачать byTorrent.zip (0,6 МБ)

Поддержи torrent.by
российских рублей
(300 российских рублей это 4$)

Обратная связь rss

End game ©