↑↓torrent.by
Поиск
Логин:  Регистрация
Пароль:

Преступление в раю / Un crime au paradis / A Crime in Paradise (2001) WEB-DLRip-AVC от DoMiNo & селезень | P2

download Скачать торрент-файл   magnet Магнитная ссылка Размер: 1.50 GB Добавлен: 2024-04-03 17:00
Пиры будут получены из сети DHT
Последний сидер был замечен 2024-04-09 21:58
Информация о фильме Название: Преступление в раю Оригинальное название: Un crime au paradis / A Crime in Paradise Год выхода: 2001 Жанр: Комедия, драма Режиссер: Жан Бекер В ролях: Жак Вильре, Жозиан Баласко, Андре Дюссолье, Жерар Эрнандес, Валери Мересс, Мариза Деоль, Дженни Клив, Даниель Прево, Жак Дакмин, Жан Делл, Кристин Деларош, Эрик Буньон, Доминик Лаванан, Жан-Мишель Мартиаль, Кларисса Баффье, Валер Бертран, Ален Шапюи, Роже Крузе, Ален Форитт, Марго Фусс, Дмитрий Гарнье, Валери Жиль, Валери Гильхот, Паола Жютте, Терри Кевин, Жан-Робер Ломбар О фильме: У Жожо Браконье и его жены Лулу есть одна заветная мечта: они мечтают избавиться друг от друга. Однако, благодаря кое-каким общим деловым интересам, обоим супругам не выгоден развод. Однажды Жожо увидел по телевизору, как знаменитый адвокат Морис Жакар празднует очередной выигранный им процесс. Не в силах больше терпеть жизнь под одной крышей с ненавистной женой, Жожо отправляется к Жакару и пытается с помощью ловко поставленных вопросов детально разузнать: при каких смягчающих обстоятельствах убийца может получить оправдательный приговор... Фильм снят по сценарию знаменитого французского писателя, автора множества детективных романов Себастьяна Жапризо. Страна: Франция Студия: CNC, France 2 Cinéma, Josy Films Продолжительность: 01:32:41 Перевод: Профессиональный (двухголосый, закадровый) | Екатеринбург Арт Субтитры: Английские, французские SDH Файл Формат: Matroska Качество: WEB-DLRip-AVC Видео: 1024x436 at 25.000 fps, x264@L4.1, ~1936 kbps Аудио 1: AC3, 2 ch, ~192 kbps - | Русский | Аудио 2: AC3, 2 ch, ~192 kbps - | Французский | Формат субтитров: softsub (SRT) ***Рип от: -=DoMiNo=-
[+] M/IGeneral Unique ID : 180339826601122619449899898413666737047 (0x87AC2FEDC267673A71CE76ECA5CF1B97) Complete name : I:Un.crime.au.paradis.2001.DVO.WEB-DLRip.x264.seleZen.mkv Format : Matroska Format version : Version 4 File size : 1.50 GiB Duration : 1 h 32 min Overall bit rate : 2 323 kb/s Frame rate : 25.000 FPS Movie name : Un.crime.au.paradis.2001.DVO.WEB-DLRip.x264.seleZen Encoded date : 2024-04-03 10:16:58 UTC Writing application : mkvmerge v83.0 ('Circle Of Friends') 64-bit Writing library : libebml v1.4.5 + libmatroska v1.7.1 Cover : Yes Attachments : cover.jpg / small_cover.jpg Video ID : 1 Format : AVC Format/Info : Advanced Video Codec Format profile : High@L4.1 Format settings : CABAC / 14 Ref Frames Format settings, CABAC : Yes Format settings, Reference : 14 frames Codec ID : V_MPEG4/ISO/AVC Duration : 1 h 32 min Bit rate : 1 936 kb/s Width : 1 024 pixels Height : 436 pixels Display aspect ratio : 2.35:1 Frame rate mode : Constant Frame rate : 25.000 FPS Color space : YUV Chroma subsampling : 4:2:0 Bit depth : 8 bits Scan type : Progressive Bits/(Pixel*Frame) : 0.173 Stream size : 1.25 GiB (83%) Title : -=DoMiNo=- Writing library : x264 core 164 r3190 -DoMiNo Encoding settings : cabac=1 / ref=14 / deblock=1:-2:-1 / analyse=0x3:0x133 / me=umh / subme=10 / psy=1 / psy_rd=1.05:0.05 / mixed_ref=1 / me_range=32 / chroma_me=1 / trellis=2 / 8x8dct=1 / cqm=0 / deadzone=21,11 / fast_pskip=0 / chroma_qp_offset=-3 / threads=14 / lookahead_threads=3 / sliced_threads=0 / nr=0 / decimate=0 / interlaced=0 / bluray_compat=0 / constrained_intra=0 / bframes=10 / b_pyramid=2 / b_adapt=2 / b_bias=0 / direct=1 / weightb=1 / open_gop=0 / weightp=2 / keyint=250 / keyint_min=25 / scenecut=40 / intra_refresh=0 / rc_lookahead=60 / rc=crf / mbtree=0 / crf=18.0 / qcomp=0.60 / qpmin=0 / qpmax=69 / qpstep=4 / vbv_maxrate=50000 / vbv_bufsize=62500 / crf_max=0.0 / nal_hrd=none / filler=0 / ip_ratio=1.40 / pb_ratio=1.30 / aq=1:0.80 Language : English Default : Yes Forced : No Color range : Limited Color primaries : BT.709 Transfer characteristics : BT.709 Matrix coefficients : BT.709 Audio #1 ID : 2 Format : AC-3 Format/Info : Audio Coding 3 Commercial name : Dolby Digital Codec ID : A_AC3 Duration : 1 h 32 min Bit rate mode : Constant Bit rate : 192 kb/s Channel(s) : 2 channels Channel layout : L R Sampling rate : 48.0 kHz Frame rate : 31.250 FPS (1536 SPF) Compression mode : Lossy Stream size : 127 MiB (8%) Title : DVO -Екатеринбург Арт Language : Russian Service kind : Complete Main Default : Yes Forced : No Audio #2 ID : 3 Format : AC-3 Format/Info : Audio Coding 3 Commercial name : Dolby Digital Codec ID : A_AC3 Duration : 1 h 32 min Bit rate mode : Constant Bit rate : 192 kb/s Channel(s) : 2 channels Channel layout : L R Sampling rate : 48.0 kHz Frame rate : 31.250 FPS (1536 SPF) Compression mode : Lossy Stream size : 127 MiB (8%) Title : Original Language : French Service kind : Complete Main Default : No Forced : No Text #1 ID : 4 Format : UTF-8 Codec ID : S_TEXT/UTF8 Codec ID/Info : UTF-8 Plain Text Duration : 1 h 28 min Bit rate : 55 b/s Frame rate : 0.289 FPS Count of elements : 1534 Stream size : 36.1 KiB (0%) Language : English Default : No Forced : No Text #2 ID : 5 Format : UTF-8 Codec ID : S_TEXT/UTF8 Codec ID/Info : UTF-8 Plain Text Duration : 1 h 29 min Bit rate : 106 b/s Frame rate : 0.396 FPS Count of elements : 2127 Stream size : 69.6 KiB (0%) Title : SDH Language : French Default : No Forced : No Menu 00:00:00.000 : en:Chapter 1 01:29:47.000 : en:End Credits
Релиз: Присоединяйся к: Кликай на баннеры.

Всего файлов в раздаче: 1 
Un.crime.au.paradis.2001.DVO.WEB-DLRip.x264.seleZen.mkv1.50 GB

Похожие раздачи по запросу - Преступление
2024-02-29 magnet Серия - «Преступление в большом городе» [19 книг] (2020-2023) FB2 34.04 MB ↑ 0 ↓ 0
2024-02-26 magnet Серия - «Преступление в большом городе» [14 книг] (2020-2023) FB2 27.49 MB ↑ 0 ↓ 0
2023-09-19 magnet Моё преступление / Mon crime / The Crime Is Mine (2023) HDRip-AVC от ExKinoRay | D 745.05 MB ↑ 0 ↓ 0

Комментарии


Зарегистрируйтесь чтобы добавить комментарий
Торрент клиент
byTorrent - программа для загрузки торрент-файлов.

Скачать byTorrent.exe (1,5 МБ)

Скачать byTorrent.zip (0,6 МБ)

Поддержи torrent.by
российских рублей
(300 российских рублей это 4$)

Обратная связь rss

End game ©