↑↓torrent.by
Поиск
Логин:  Регистрация
Пароль:

Последний сын / The Last Son (2021) HDRip-AVC от DoMiNo | A

download Скачать торрент-файл   magnet Магнитная ссылка Размер: 1.45 GB Добавлен: 2024-04-14 05:00
Пиры будут получены из сети DHT
Последний сидер был замечен 2024-06-18 17:45
Информация о фильме Название: Последний сын Оригинальное название: The Last Son Год выхода: 2021 Жанр: Фантастика, фэнтези, боевик, триллер, драма, мелодрама, криминал, детектив, приключения, вестерн Режиссер: Тим Саттон В ролях: Сэм Уортингтон, Машин Ган Келли, Томас Джейн, Хизер Грэм, Ким ДеЛонги, Скотти Бонен, Дэнни Бонен, Джеймс Хеберт, Джеймс Ди Джакомо О фильме: Американский запад, 1886 год. Матерому преступнику Лемею индеец предрекает гибель от руки собственного сына. Поверив предсказанию, Лемей решает убить всех своих сыновей, однако последний из них тоже оказывается преступником, способным дать отпор. Выпущено: США / Blind Wink Productions, DECAL, Renegade Entertainment Продолжительность: 01:38:22 Перевод: Авторский (BadBajo) Субтитры: Русские, английские Файл Формат: Matroska Качество: HDRip-AVC Видео: 1024x428 at 23.976 fps, x264@L4.1, ~1731 kbps Аудио: AC3, 6 ch, ~384 kbps - | Русский | Формат субтитров: softsub (SRT) ► Без Рекламы! ***Рип от: -=DoMiNo=-
[+] M/Ix264 : frame I:803 Avg QP:13.17 size: 73890 x264 : frame P:30518 Avg QP:16.80 size: 20956 x264 : frame B:110195 Avg QP:17.83 size: 5215 General Unique ID : 191094125230860946569870209688684668072 (0x8FC363C9CAE489F0AB5CC09832AB24A8) Complete name : I:The.Last.Son.2021.AVO..HDRip.x264.mkv Format : Matroska Format version : Version 4 File size : 1.45 GiB Duration : 1 h 38 min Overall bit rate : 2 112 kb/s Encoded date : UTC 2022-01-17 17:20:50 Writing application : mkvmerge v64.0.0 ('Willows') 64-bit Writing library : libebml v1.4.2 + libmatroska v1.6.4 Cover : Yes Attachments : cover.jpg / cover 2.jpg Video ID : 1 Format : AVC Format/Info : Advanced Video Codec Format profile : High@L4.1 Format settings : CABAC / 12 Ref Frames Format settings, CABAC : Yes Format settings, Reference : 12 frames Codec ID : V_MPEG4/ISO/AVC Duration : 1 h 38 min Bit rate : 1 731 kb/s Width : 1 024 pixels Height : 428 pixels Display aspect ratio : 2.40:1 Frame rate mode : Constant Frame rate : 23.976 (24000/1001) FPS Color space : YUV Chroma subsampling : 4:2:0 Bit depth : 8 bits Scan type : Progressive Bits/(Pixel*Frame) : 0.165 Stream size : 1.19 GiB (82%) Title : -=DoMiNo=- Writing library : x264 core 164 r3081 19856cc Encoding settings : cabac=1 / ref=12 / deblock=1:-2:-2 / analyse=0x3:0x133 / me=umh / subme=10 / psy=1 / psy_rd=1.05:0.15 / mixed_ref=1 / me_range=32 / chroma_me=1 / trellis=2 / 8x8dct=1 / cqm=0 / deadzone=21,11 / fast_pskip=0 / chroma_qp_offset=-3 / threads=13 / lookahead_threads=2 / sliced_threads=0 / nr=0 / decimate=0 / interlaced=0 / bluray_compat=0 / constrained_intra=0 / bframes=9 / b_pyramid=2 / b_adapt=2 / b_bias=0 / direct=3 / weightb=1 / open_gop=0 / weightp=2 / keyint=250 / keyint_min=23 / scenecut=40 / intra_refresh=0 / rc_lookahead=60 / rc=2pass / mbtree=0 / bitrate=1731 / ratetol=1.0 / qcomp=0.60 / qpmin=0 / qpmax=69 / qpstep=4 / cplxblur=20.0 / qblur=0.5 / vbv_maxrate=50000 / vbv_bufsize=62500 / nal_hrd=none / filler=0 / ip_ratio=1.40 / pb_ratio=1.30 / aq=3:1.00 Language : English Default : Yes Forced : No Color range : Limited Color primaries : BT.709 Matrix coefficients : BT.709 Audio ID : 2 Format : AC-3 Format/Info : Audio Coding 3 Commercial name : Dolby Digital Codec ID : A_AC3 Duration : 1 h 38 min Bit rate mode : Constant Bit rate : 384 kb/s Channel(s) : 6 channels Channel layout : L R C LFE Ls Rs Sampling rate : 48.0 kHz Frame rate : 31.250 FPS (1536 SPF) Compression mode : Lossy Stream size : 270 MiB (18%) Title : AVO_А. Важенин / Badbajo Language : Russian Service kind : Complete Main Default : No Forced : No Text #1 ID : 3 Format : UTF-8 Codec ID : S_TEXT/UTF8 Codec ID/Info : UTF-8 Plain Text Duration : 1 h 31 min Bit rate : 34 b/s Count of elements : 552 Stream size : 22.9 KiB (0%) Title : Language : Russian Default : No Forced : No Text #2 ID : 4 Format : UTF-8 Codec ID : S_TEXT/UTF8 Codec ID/Info : UTF-8 Plain Text Duration : 1 h 31 min Bit rate : 21 b/s Count of elements : 575 Stream size : 14.1 KiB (0%) Language : English Default : No Forced : No Menu 00:00:00.000 : en:Chapter 01 00:13:17.672 : en:Chapter 02 00:28:53.607 : en:Chapter 03 00:43:16.469 : en:Chapter 04 00:55:05.052 : en:Chapter 05 01:05:57.162 : en:Chapter 06 01:15:27.356 : en:Chapter 07 01:24:46.123 : en:Chapter 08
[+] Скриншоты

Всего файлов в раздаче: 1 
The.Last.Son.2021.AVO..HDRip.x264.mkv1.45 GB

Похожие раздачи по запросу - Последний
Вчера magnet Константин Зубов - Цикл «Последний попаданец» [12 книг] (2023-2024) FB2 11.20 MB ↑ 0 ↓ 0
2024-06-17 magnet Дон Холлуэй - Последний викинг. Сага о великом завоевателе Харальде III Суровом (2024) FB 4.71 MB ↑ 0 ↓ 0
2024-06-12 magnet Последний раз, когда мы были детьми / Lultima volta che siamo stati bambini / The last time we were kids (2023) HDRip-AVC | L 1.89 GB ↑ 9 ↓ 1
2024-06-03 magnet Виктор Глебов - Эргоном 1. Последний ассасин (2023) МР3 272.47 MB ↑ 0 ↓ 0
2024-05-31 magnet Кирилл Клеванский - Матабар 1. Последний своей крови (2024) MP3 1.15 GB ↑ 0 ↓ 0
2024-05-29 magnet Последний фронт / The Last Front (2024) WEB-DLRip [MVO] 1.37 GB ↑ 20 ↓ 1
2024-05-29 magnet Последний фронт / The Last Front (2024) WEB-DLRip [H.264/1080p] [MVO] 4.79 GB ↑ 10 ↓ 1

Кто качает (только для создателя раздачи и модераторов): Локальные пиры отсутствуют

Комментарии


Зарегистрируйтесь чтобы добавить комментарий
Торрент клиент
byTorrent - программа для загрузки торрент-файлов.

Скачать byTorrent.exe (1,5 МБ)

Скачать byTorrent.zip (0,6 МБ)

Поддержи torrent.by
российских рублей
(300 российских рублей это 4$)

Обратная связь rss

End game ©