↑↓torrent.by
Поиск
Логин:  Регистрация
Пароль:

Спуск в бездну / Gueules noires / The Deep Dark (2023) HDRip от New-Team | D

download Скачать торрент-файл   magnet Магнитная ссылка Размер: 1.46 GB Добавлен: 2024-04-19 05:00
Пиры будут получены из сети DHT
Последний сидер был замечен 2024-04-29 08:14
Спуск в бездну / Gueules noires / The Deep Dark Год выпуска: 2023 Выпущено: Франция, Amazon Prime Video, Fulltime Studio, Marcel Films, OCS, Pictanova Жанр: ужасы, приключения Режиссер: Матьё Тури / Mathieu Turi В ролях: Самюэль Ле Бьян, Амир Эль Касем, Тома Соливерес, Жан-Юг Англад, Карл Лафоре, Диего Мартин, Марк Ризо, Бруно Санчес, Филипп Торретон О фильме: Группе горняков поручают сопроводить профессора к месту раскопок. На самой глубине шахты они натыкаются на древний склеп и пробуждают ужасное и кровожадное зло, что веками таилось во мраке. Продолжительность: 01:41:31 Перевод: Профессиональный (полное дублирование) | Кипарис Субтитры: Нет. Раздача от: Автор релиза: JNS82. Формат: AVI Качество: HDRip Видео: 720x304 (2,35:1), 24.000 fps, XviD MPEG-4 ~ 1565 kbps avg, 0.298 bit/pixel, build 74 Аудио: 48 kHz, AC3 Dolby Digital, 3/2 (L,C,R,l,r) + LFE ch, ~ 448 kbps | RUS |
[+] MediaInfoОбщее Полное имя : D:TorrentsGueules.noires.2023.HDRip_от New-Team_by_JNS82.avi Формат : AVI Формат/Информация : Audio Video Interleave Размер файла : 1,46 Гбайт Продолжительность : 1 ч. 43 м. Общий поток : 2 022 Кбит/сек Программа кодирования : VirtualDubMod 1.5.10.2 (build 2540/release) Библиотека кодирования : VirtualDubMod build 2540/release Видео Идентификатор : 0 Формат : MPEG-4 Visual Профиль формата : Advanced Simple@L5 Настройки формата : BVOP1 / Custom Matrix Параметр BVOP формата : 1 Параметр QPel формата : Нет Параметр GMC формата : Без точки перехода Параметр матрицы формата : Выборочная Идентификатор кодека : XVID Идентификатор кодека/Подсказка : XviD Продолжительность : 1 ч. 43 м. Битрейт : 1 565 Кбит/сек Ширина : 720 пикселей Высота : 304 пикселя Соотношение сторон : 2,35:1 Частота кадров : 24,000 кадра/сек Цветовое пространство : YUV Субдискретизация насыщенности : 4:2:0 Битовая глубина : 8 бит Тип развёртки : Прогрессивная Метод сжатия : С потерями Бит/(Пиксели*Кадры) : 0.298 Размер потока : 1,13 Гбайт (77%) Библиотека кодирования : XviD 74 Аудио Идентификатор : 1 Формат : AC-3 Формат/Информация : Audio Coding 3 Коммерческое название : Dolby Digital Идентификатор кодека : 2000 Продолжительность : 1 ч. 43 м. Вид битрейта : Постоянный Битрейт : 448 Кбит/сек Каналы : 6 каналов Channel layout : L R C LFE Ls Rs Частота : 48,0 КГц Частота кадров : 31,250 кадров/сек (1536 SPF) Метод сжатия : С потерями Размер потока : 332 Мбайт (22%) Выравнивание : Разделение по промежуткам Продолжительность промежутка : 42 мс. (1,00 видеокадр) Время предзагрузки промежутка : 500 мс. Service kind : Complete Main

Всего файлов в раздаче: 1 
Gueules.noires.2023.HDRip_от New-Team_by_JNS82.avi1.46 GB

Похожие раздачи по запросу - Спуск
2024-04-28 magnet Спуск / The Descent (2005) BDRip 1080p | D 4.37 GB ↑ 0 ↓ 0
2024-04-21 magnet Спуск в бездну / Gueules noires / The Deep Dark (2023) HDRip-AVC от ExKinoRay | D 741.80 MB ↑ 0 ↓ 0
2024-04-19 magnet Спуск в бездну / Gueules noires / The Deep Dark (2023) BDRip 1080p от селезень | D | KION 8.16 GB ↑ 0 ↓ 0
2024-04-19 magnet Спуск в бездну / Gueules noires / The Deep Dark (2023) BDRip-AVC от DoMiNo & селезень | D 1.45 GB ↑ 0 ↓ 0
2024-04-19 magnet Спуск в бездну / Gueules noires / The Deep Dark (2023) BDRip-AVC от New-Team | D 2.17 GB ↑ 0 ↓ 0
2024-04-19 magnet Спуск в бездну / Gueules noires (2023) BDRemux 1080p | D 24.71 GB ↑ 0 ↓ 0
2024-04-19 magnet Спуск в бездну / Gueules noires (2023) BDRip 1080p от EniaHD | D 15.28 GB ↑ 0 ↓ 0

Комментарии


Зарегистрируйтесь чтобы добавить комментарий
Торрент клиент
byTorrent - программа для загрузки торрент-файлов.

Скачать byTorrent.exe (1,5 МБ)

Скачать byTorrent.zip (0,6 МБ)

Поддержи torrent.by
российских рублей
(300 российских рублей это 4$)

Обратная связь rss

End game ©