↑↓torrent.by
Поиск
Логин:  Регистрация
Пароль:

Спуск в бездну / Gueules noires / The Deep Dark (2023) BDRip-AVC от New-Team | D

download Скачать торрент-файл   magnet Магнитная ссылка Размер: 2.17 GB Добавлен: 2024-04-19 11:00
Пиры будут получены из сети DHT
Последний сидер был замечен 2024-05-19 19:48
Спуск в бездну / Gueules noires / The Deep Dark Год выпуска: 2023 Выпущено: Франция, Amazon Prime Video, Fulltime Studio, Marcel Films, OCS, Pictanova Жанр: ужасы, приключения Режиссер: Матьё Тури / Mathieu Turi В ролях: Самюэль Ле Бьян, Амир Эль Касем, Тома Соливерес, Жан-Юг Англад, Карл Лафоре, Диего Мартин, Марк Ризо, Бруно Санчес, Филипп Торретон О фильме: Группе горняков поручают сопроводить профессора к месту раскопок. На самой глубине шахты они натыкаются на древний склеп и пробуждают ужасное и кровожадное зло, что веками таилось во мраке. Продолжительность: 01:41:31 Перевод: Профессиональный (полное дублирование) | Кипарис Субтитры: Английские (full). Раздача от: Автор релиза: JNS82. Формат: MKV Качество: BDRip-AVC Видео: MPEG-4 AVC, x264, 2562 Кбит/с, (2,39:1), 1024x432, 24.000 fps Аудио #1: 48 kHz, AC3 Dolby Digital, 3/2 (L,C,R,l,r) + LFE ch, ~ 448 kbps | RUS |
[+] MediaInfoОбщее Уникальный идентификатор : 46288933360628735108602272179147927861 (0x22D2EC9DF61727AE1EF9D5B05FC67135) Полное имя : D:TorrentsGueules.noires.2023.BDRip-AVC_от New-Team_by_JNS82.mkv Формат : Matroska Версия формата : Version 4 Размер файла : 2,17 Гбайт Продолжительность : 1 ч. 43 мин. Общий битрейт : 3 006 Кбит/сек Частота кадров : 24,000 кадра/сек Название фильма : Gueules.noires.2023.BDRip-AVC_от New-Team_by_JNS82 Дата кодирования : 2024-04-19 01:18:27 UTC Программа кодирования : mkvmerge v79.0 ('Funeral Pyres') 64-bit Библиотека кодирования : libebml v1.4.4 + libmatroska v1.7.1 Видео Идентификатор : 1 Формат : AVC Формат/Информация : Advanced Video Codec Профиль формата : High@L4.1 Настройки формата : CABAC / 12 Ref Frames Параметр CABAC формата : Да Параметр RefFrames формата : 12 кадров Идентификатор кодека : V_MPEG4/ISO/AVC Продолжительность : 1 ч. 43 мин. Битрейт : 2 562 Кбит/сек Ширина : 1 024 пикселя Высота : 432 пикселя Соотношение сторон дисплея : 2,39:1 Режим частоты кадров : Постоянный Частота кадров : 24,000 кадра/сек Цветовое пространство : YUV Цветовая субдискретизация : 4:2:0 Битовая глубина : 8 бит Тип развёртки : Прогрессивная Бит/(Пиксели*Кадры) : 0.241 Размер потока : 1,85 Гбайт (85%) Библиотека кодирования : x264 core 164 r3156+57M NewTeam t_mod_New Параметры библиотеки кодирования : cabac=1 / ref=12 / deblock=1:-3:-2 / analyse=0x3:0x113 / me=umh / subme=10 / psy=1 / fade_compensate=0.00 / psy_rd=1.05:0.03 / mixed_ref=1 / me_range=32 / chroma_me=1 / trellis=2 / 8x8dct=1 / cqm=0 / deadzone=21,11 / fast_pskip=0 / chroma_qp_offset=-3 / threads=13 / lookahead_threads=3 / sliced_threads=0 / nr=0 / decimate=0 / interlaced=0 / bluray_compat=0 / constrained_intra=0 / fgo=0 / bframes=10 / b_pyramid=2 / b_adapt=2 / b_bias=0 / direct=3 / weightb=1 / open_gop=0 / weightp=2 / keyint=250 / keyint_min=23 / scenecut=40 / intra_refresh=0 / rc_lookahead=60 / rc=2pass / mbtree=0 / bitrate=2562 / ratetol=1.0 / qcomp=0.60 / qpmin=0:0:0 / qpmax=69:69:69 / qpstep=4 / cplxblur=20.0 / qblur=0.5 / vbv_maxrate=50000 / vbv_bufsize=62500 / nal_hrd=none / filler=0 / ip_ratio=1.40 / pb_ratio=1.30 / aq=1:1.00 / aq-sensitivity=10.00 / aq-factor=1.00:1.00:1.00 / aq2=0 / aq3=0 Язык : Английский По умолчанию : Да Принудительно : Нет Аудио Идентификатор : 2 Формат : AC-3 Формат/Информация : Audio Coding 3 Коммерческое название : Dolby Digital Идентификатор кодека : A_AC3 Продолжительность : 1 ч. 43 мин. Вид битрейта : Постоянный Битрейт : 448 Кбит/сек Канал(-ы) : 6 каналов Расположение каналов : L R C LFE Ls Rs Частота дискретизации : 48,0 КГц Частота кадров : 31,250 кадров/сек (1536 SPF) Метод сжатия : С потерями Размер потока : 332 Мбайт (15%) Заголовок : DUB - Кипарис Язык : Русский Вид сервиса : Complete Main По умолчанию : Да Принудительно : Нет Нормализация звука речи : -31 dB cmixlev : -3.0 dB surmixlev : -3 dB dialnorm_Average : -31 dB dialnorm_Minimum : -31 dB dialnorm_Maximum : -31 dB Текст Идентификатор : 3 Формат : UTF-8 Идентификатор кодека : S_TEXT/UTF8 Идентификатор кодека/Информация : UTF-8 Plain Text Продолжительность : 1 ч. 35 мин. Битрейт : 44 бит/сек Частота кадров : 0,197 кадр/сек Число элементов : 1135 Размер потока : 31,2 КиБ (0%) Заголовок : Язык : Английский По умолчанию : Нет Принудительно : Нет Меню 00:00:00.000 : Глава 01 00:11:23.833 : Глава 02 00:22:48.125 : Глава 03 00:29:29.791 : Глава 04 00:39:15.583 : Глава 05 00:48:09.833 : Глава 06 01:02:48.875 : Глава 07 01:13:12.333 : Глава 08 01:23:12.708 : Глава 09 01:33:44.166 : Глава 10 01:37:10.750 : Глава 11 01:43:33.666 : Глава 12

Всего файлов в раздаче: 1 
Gueules.noires.2023.BDRip-AVC_от New-Team_by_JNS82.mkv2.17 GB

Похожие раздачи по запросу - Спуск
2024-04-28 magnet Спуск / The Descent (2005) BDRip 1080p | D 4.37 GB ↑ 0 ↓ 0
2024-04-21 magnet Спуск в бездну / Gueules noires / The Deep Dark (2023) HDRip-AVC от ExKinoRay | D 741.80 MB ↑ 0 ↓ 0
2024-04-19 magnet Спуск в бездну / Gueules noires / The Deep Dark (2023) BDRip 1080p от селезень | D | KION 8.16 GB ↑ 0 ↓ 0
2024-04-19 magnet Спуск в бездну / Gueules noires / The Deep Dark (2023) BDRip-AVC от DoMiNo & селезень | D 1.45 GB ↑ 0 ↓ 0
2024-04-19 magnet Спуск в бездну / Gueules noires (2023) BDRemux 1080p | D 24.71 GB ↑ 0 ↓ 0
2024-04-19 magnet Спуск в бездну / Gueules noires (2023) BDRip 1080p от EniaHD | D 15.28 GB ↑ 0 ↓ 0
2024-04-19 magnet Спуск в бездну / Gueules noires (2023) BDRip 720p от DoMiNo & селезень | D 5.34 GB ↑ 0 ↓ 0

Комментарии


Зарегистрируйтесь чтобы добавить комментарий
Торрент клиент
byTorrent - программа для загрузки торрент-файлов.

Скачать byTorrent.exe (1,5 МБ)

Скачать byTorrent.zip (0,6 МБ)

Поддержи torrent.by
российских рублей
(300 российских рублей это 4$)

Обратная связь rss

End game ©