↑↓torrent.by
Поиск
Логин:  Регистрация
Пароль:

Асфальтовые джунгли / Asphalt City (2023) WEB-DL 1080p от New-Team | L | Soundmaster

download Скачать торрент-файл   magnet Магнитная ссылка Размер: 9.34 GB Добавлен: 2024-04-20 05:00
Пиры будут получены из сети DHT
Последний сидер был замечен 2024-06-03 22:48
Асфальтовые джунгли / Asphalt City Год выпуска: 2023 Выпущено: США, Sculptor Media, AZA Films, Force Majeure Жанр: триллер, драма Режиссер: Жан-Стефан Совер / Jean-Stéphane Sauvaire В ролях: Тай Шеридан, Шон Пенн, Гбенга Акиннагбе, Майкл Питт, Кэтрин Уотерстон, Майк Тайсон, Ракель Нив, Кали Рейс, Рамон Алеман, Джаган Бэдуэлл О фильме: Фильм рассказывает о молодом сотруднике бригады скорой помощи Олли Кроссе, который начинает работать на улицах Нью-Йорка вместе с опытным медиком Джином Ратковски, привыкшим к ужасам большого города, наполненного бездомными, убийствами и наркотиками. Работая в ночную смену и сталкиваясь с маргиналами, они каждый раз вынуждены рисковать своими жизнями, чтобы спасти чужие. Продолжительность: 02:05:04 Перевод: Любительский (многоголосый, закадровый) | Soundmasters | 18 + Субтитры: Английские Раздача от: Автор релиза: JNS82. Формат: MKV Качество: WEB-DL 1080p | AMZN Видео: MPEG-4 AVC, x264, 10000 Кбит/с, (2,35:1), 1920x816, 23,976 fps Аудио #1: 48 kHz, AC3 Dolby Digital, 3/2 (L,C,R,l,r) + LFE ch, ~ 384 kbps | RUS | Аудио #2: 48 kHz, E-AC3 Dolby Digital, 3/2 (L,C,R,l,r) + LFE ch, ~ 640 kbps | ENG |
[+] MediaInfoОбщее Уникальный идентификатор : 317599297841144222760594737361513776208 (0xEEEF66597AF9287F17449325A74E8450) Полное имя : D:TorrentsAsphalt.City.2023.1080p.AMZN_от New-Team.mkv Формат : Matroska Версия формата : Version 4 Размер файла : 9,34 Гбайт Продолжительность : 2 ч. 5 мин. Общий битрейт : 10,7 Мбит/сек Частота кадров : 23,976 кадра/сек Название фильма : Asphalt.City.2023.1080p.AMZN_от New-Team Дата кодирования : 2024-04-19 19:18:17 UTC Программа кодирования : mkvmerge v79.0 ('Funeral Pyres') 64-bit Библиотека кодирования : libebml v1.4.4 + libmatroska v1.7.1 Видео Идентификатор : 1 Формат : AVC Формат/Информация : Advanced Video Codec Профиль формата : High@L4 Настройки формата : CABAC / 4 Ref Frames Параметр CABAC формата : Да Параметр RefFrames формата : 4 кадра Идентификатор кодека : V_MPEG4/ISO/AVC Продолжительность : 2 ч. 5 мин. Вид битрейта : Постоянный Битрейт : 10 000 Кбит/сек Ширина : 1 920 пикселей Высота : 816 пикселей Соотношение сторон дисплея : 2,35:1 Режим частоты кадров : Постоянный Частота кадров : 23,976 (24000/1001) кадра/сек Цветовое пространство : YUV Цветовая субдискретизация : 4:2:0 Битовая глубина : 8 бит Тип развёртки : Прогрессивная Бит/(Пиксели*Кадры) : 0.266 Размер потока : 8,45 Гбайт (90%) Язык : Английский По умолчанию : Да Принудительно : Нет Цветовой диапазон : Limited Основные цвета : BT.709 Характеристики трансфера : BT.709 Коэффициенты матрицы : BT.709 Аудио #1 Идентификатор : 2 Формат : AC-3 Формат/Информация : Audio Coding 3 Коммерческое название : Dolby Digital Идентификатор кодека : A_AC3 Продолжительность : 2 ч. 5 мин. Вид битрейта : Постоянный Битрейт : 384 Кбит/сек Канал(-ы) : 6 каналов Расположение каналов : L R C LFE Ls Rs Частота дискретизации : 48,0 КГц Частота кадров : 31,250 кадров/сек (1536 SPF) Метод сжатия : С потерями Размер потока : 344 Мбайт (4%) Заголовок : MVO - Soundmaster Язык : Русский Вид сервиса : Complete Main По умолчанию : Да Принудительно : Нет Нормализация звука речи : -31 dB cmixlev : -4.5 dB surmixlev : -6 dB dialnorm_Average : -31 dB dialnorm_Minimum : -31 dB dialnorm_Maximum : -31 dB Аудио #2 Идентификатор : 3 Формат : E-AC-3 Формат/Информация : Enhanced AC-3 Коммерческое название : Dolby Digital Plus Идентификатор кодека : A_EAC3 Продолжительность : 2 ч. 5 мин. Вид битрейта : Постоянный Битрейт : 640 Кбит/сек Канал(-ы) : 6 каналов Расположение каналов : L R C LFE Ls Rs Частота дискретизации : 48,0 КГц Частота кадров : 31,250 кадров/сек (1536 SPF) Метод сжатия : С потерями Размер потока : 573 Мбайт (6%) Заголовок : Original Язык : Английский (US) Вид сервиса : Complete Main По умолчанию : Нет Принудительно : Нет Нормализация звука речи : -31 dB compr : -0.28 dB dialnorm_Average : -31 dB dialnorm_Minimum : -31 dB dialnorm_Maximum : -31 dB Текст #1 Идентификатор : 4 Формат : UTF-8 Идентификатор кодека : S_TEXT/UTF8 Идентификатор кодека/Информация : UTF-8 Plain Text Продолжительность : 1 ч. 56 мин. Битрейт : 51 бит/сек Частота кадров : 0,226 кадр/сек Число элементов : 1581 Размер потока : 44,0 КиБ (0%) Заголовок : Язык : Английский (GB) По умолчанию : Нет Принудительно : Нет Текст #2 Идентификатор : 5 Формат : UTF-8 Идентификатор кодека : S_TEXT/UTF8 Идентификатор кодека/Информация : UTF-8 Plain Text Продолжительность : 2 ч. 4 мин. Битрейт : 61 бит/сек Частота кадров : 0,272 кадр/сек Число элементов : 2034 Размер потока : 56,3 КиБ (0%) Заголовок : Язык : Английский (GB) По умолчанию : Нет Принудительно : Нет

Всего файлов в раздаче: 1 
Asphalt.City.2023.1080p.AMZN_от New-Team.mkv9.34 GB

Похожие раздачи по запросу - Асфальтовые
2024-05-30 magnet Асфальтовые джунгли / Asphalt City (2023) BDRip 720p от DoMiNo & селезень | D, L | Soundmasters 6.16 GB ↑ 0 ↓ 0
2024-05-29 magnet Асфальтовые джунгли / Asphalt City (2023) BDRip 1080p от New-Team | D, L | Soundmasters 9.81 GB ↑ 0 ↓ 0
2024-05-27 magnet Асфальтовые джунгли / Asphalt City (2023) BDRip от MegaPeer | D | Soundmasters 1.46 GB ↑ 0 ↓ 0
2024-05-17 magnet Асфальтовые джунгли / Asphalt City (2023) WEB-DL 1080p от New-Team | D, L | Soundmasters 9.51 GB ↑ 0 ↓ 0
2024-04-21 magnet Асфальтовые джунгли / Asphalt City (2023) WEB-DL 720p от селезень | L | Soundmasters 5.22 GB ↑ 0 ↓ 0
2024-04-21 magnet Асфальтовые джунгли / Asphalt City (2023) WEB-DLRip от ExKinoRay | L 752.79 MB ↑ 0 ↓ 0

Комментарии


Зарегистрируйтесь чтобы добавить комментарий
Торрент клиент
byTorrent - программа для загрузки торрент-файлов.

Скачать byTorrent.exe (1,5 МБ)

Скачать byTorrent.zip (0,6 МБ)

Поддержи torrent.by
российских рублей
(300 российских рублей это 4$)

Обратная связь rss

End game ©