↑↓torrent.by
Поиск
Логин:  Регистрация
Пароль:

Pearl Jam - Dark Matter (2024) FLAC

download Скачать торрент-файл   magnet Магнитная ссылка Размер: 343.50 MB Добавлен: 2024-04-20 17:00
Пиры будут получены из сети DHT
Последний сидер был замечен 2024-05-02 00:44
Pearl Jam - Dark Matter (2024) Жанр: Grunge, Alternative Rock Издание: Monkeywrench Records - 602465084962 Продолжительность: 00:48:25 Seattle, Washington https://pearljam.bandcamp.com/music https://www.facebook.com/PearlJam Кодек: FLAC Битрейт: Lossless Тип рипа: tracks + .cue Треклист: 01. Scared Of Fear (4:25) 02. React, Respond (3:31) 03. Wreckage (5:01) 04. Dark Matter (3:32) 05. Won't Tell (3:28) 06. Upper Hand (5:57) 07. Waiting For Stevie (5:41) 08. Running (2:19) 09. Something Special (4:07) 10. Got To Give (4:37) 11. Setting Sun (5:46)
[+] Отчёт XLD: X Lossless Decoder version 20240310 (157.0) XLD extraction logfile from 2024-04-19 10:45:40 +0200 Pearl Jam / Dark Matter Used drive : TS8XDVDS TRANSCEND (revision 1.00) Media type : Pressed CD Ripper mode : XLD Secure Ripper Disable audio cache : OK for the drive with a cache less than 1375KiB Make use of C2 pointers : NO Read offset correction : 6 Max retry count : 100 Gap status : Analyzed, Appended (except HTOA) TOC of the extracted CD Track | Start | Length | Start sector | End sector --------------------------------------------------------- 1 | 00:00:00 | 04:25:17 | 0 | 19891 2 | 04:25:17 | 03:30:63 | 19892 | 35704 3 | 07:56:05 | 05:00:36 | 35705 | 58240 4 | 12:56:41 | 03:31:54 | 58241 | 74119 5 | 16:28:20 | 03:28:15 | 74120 | 89734 6 | 19:56:35 | 05:57:17 | 89735 | 116526 7 | 25:53:52 | 05:41:12 | 116527 | 142113 8 | 31:34:64 | 02:19:33 | 142114 | 152571 9 | 33:54:22 | 04:06:66 | 152572 | 171087 10 | 38:01:13 | 04:37:30 | 171088 | 191892 11 | 42:38:43 | 05:45:54 | 191893 | 217821 AccurateRip Summary Disc not found in AccurateRip DB. All Tracks Album gain : -11.63 dB Peak : 0.988739 Statistics Read error : 0 Jitter error (maybe fixed) : 0 Retry sector count : 0 Damaged sector count : 0 Track 01 Filename : /Volumes/LaCieD2 1 DL/Pearl Jam -2024- Dark Matter (FLAC)/01 - Scared Of Fear.flac Pre-gap length : 00:02:00 Track gain : -12.23 dB Peak : 0.988739 CRC32 hash (test run) : BB2946E9 CRC32 hash : BB2946E9 CRC32 hash (skip zero) : 1A842E80 AccurateRip v1 signature : E38327D3 AccurateRip v2 signature : 44EC1C89 ->Track not present in AccurateRip database. Statistics Read error : 0 Jitter error (maybe fixed) : 0 Retry sector count : 0 Damaged sector count : 0 Track 02 Filename : /Volumes/LaCieD2 1 DL/Pearl Jam -2024- Dark Matter (FLAC)/02 - React, Respond.flac Track gain : -11.90 dB Peak : 0.988739 CRC32 hash (test run) : A8604D39 CRC32 hash : A8604D39 CRC32 hash (skip zero) : 6628B554 AccurateRip v1 signature : 57612FB4 AccurateRip v2 signature : 76D83FC1 ->Track not present in AccurateRip database. Statistics Read error : 0 Jitter error (maybe fixed) : 0 Retry sector count : 0 Damaged sector count : 0 Track 03 Filename : /Volumes/LaCieD2 1 DL/Pearl Jam -2024- Dark Matter (FLAC)/03 - Wreckage.flac Track gain : -11.30 dB Peak : 0.988739 CRC32 hash (test run) : D7AC1A6F CRC32 hash : D7AC1A6F CRC32 hash (skip zero) : 44C3CE09 AccurateRip v1 signature : 952B5E9B AccurateRip v2 signature : 516381A1 ->Track not present in AccurateRip database. Statistics Read error : 0 Jitter error (maybe fixed) : 0 Retry sector count : 0 Damaged sector count : 0 Track 04 Filename : /Volumes/LaCieD2 1 DL/Pearl Jam -2024- Dark Matter (FLAC)/04 - Dark Matter.flac Track gain : -11.65 dB Peak : 0.988739 CRC32 hash (test run) : 18D24A0D CRC32 hash : 18D24A0D CRC32 hash (skip zero) : 1087B1B3 AccurateRip v1 signature : 48A1F1E0 AccurateRip v2 signature : CC9002D0 ->Track not present in AccurateRip database. Statistics Read error : 0 Jitter error (maybe fixed) : 0 Retry sector count : 0 Damaged sector count : 0 Track 05 Filename : /Volumes/LaCieD2 1 DL/Pearl Jam -2024- Dark Matter (FLAC)/05 - Won't Tell.flac Track gain : -12.41 dB Peak : 0.977417 CRC32 hash (test run) : DF7FF3B0 CRC32 hash : DF7FF3B0 CRC32 hash (skip zero) : 5E2A7832 AccurateRip v1 signature : 0DEB2D3B AccurateRip v2 signature : 069AD6F3 ->Track not present in AccurateRip database. Statistics Read error : 0 Jitter error (maybe fixed) : 0 Retry sector count : 0 Damaged sector count : 0 Track 06 Filename : /Volumes/LaCieD2 1 DL/Pearl Jam -2024- Dark Matter (FLAC)/06 - Upper Hand.flac Track gain : -10.50 dB Peak : 0.988739 CRC32 hash (test run) : 667F057E CRC32 hash : 667F057E CRC32 hash (skip zero) : 522501E8 AccurateRip v1 signature : 4698A397 AccurateRip v2 signature : 2BBC565C ->Track not present in AccurateRip database. Statistics Read error : 0 Jitter error (maybe fixed) : 0 Retry sector count : 0 Damaged sector count : 0 Track 07 Filename : /Volumes/LaCieD2 1 DL/Pearl Jam -2024- Dark Matter (FLAC)/07 - Waiting For Stevie.flac Track gain : -11.69 dB Peak : 0.988739 CRC32 hash (test run) : 0B199D5B CRC32 hash : 0B199D5B CRC32 hash (skip zero) : 1051F8E5 AccurateRip v1 signature : 8CED2B7F AccurateRip v2 signature : DBD56B19 ->Track not present in AccurateRip database. Statistics Read error : 0 Jitter error (maybe fixed) : 0 Retry sector count : 0 Damaged sector count : 0 Track 08 Filename : /Volumes/LaCieD2 1 DL/Pearl Jam -2024- Dark Matter (FLAC)/08 - Running.flac Track gain : -12.37 dB Peak : 0.976715 CRC32 hash (test run) : 281346B7 CRC32 hash : 281346B7 CRC32 hash (skip zero) : 397F486C AccurateRip v1 signature : 0BA8A824 AccurateRip v2 signature : 9CFDCCCC ->Track not present in AccurateRip database. Statistics Read error : 0 Jitter error (maybe fixed) : 0 Retry sector count : 0 Damaged sector count : 0 Track 09 Filename : /Volumes/LaCieD2 1 DL/Pearl Jam -2024- Dark Matter (FLAC)/09 - Something Special.flac Track gain : -10.76 dB Peak : 0.988739 CRC32 hash (test run) : BEB49E6E CRC32 hash : BEB49E6E CRC32 hash (skip zero) : 033D3D05 AccurateRip v1 signature : 14FEF171 AccurateRip v2 signature : 0F684318 ->Track not present in AccurateRip database. Statistics Read error : 0 Jitter error (maybe fixed) : 0 Retry sector count : 0 Damaged sector count : 0 Track 10 Filename : /Volumes/LaCieD2 1 DL/Pearl Jam -2024- Dark Matter (FLAC)/10 - Got To Give.flac Track gain : -12.04 dB Peak : 0.988739 CRC32 hash (test run) : BA22D1C9 CRC32 hash : BA22D1C9 CRC32 hash (skip zero) : 3504E3F1 AccurateRip v1 signature : 3552CA6B AccurateRip v2 signature : AD97FCFE ->Track not present in AccurateRip database. Statistics Read error : 0 Jitter error (maybe fixed) : 0 Retry sector count : 0 Damaged sector count : 0 Track 11 Filename : /Volumes/LaCieD2 1 DL/Pearl Jam -2024- Dark Matter (FLAC)/11 - Setting Sun.flac Track gain : -11.47 dB Peak : 0.988739 CRC32 hash (test run) : C98CA8FB CRC32 hash : C98CA8FB CRC32 hash (skip zero) : A39578CF AccurateRip v1 signature : 1C500A95 AccurateRip v2 signature : 66186BE9 ->Track not present in AccurateRip database. Statistics Read error : 0 Jitter error (maybe fixed) : 0 Retry sector count : 0 Damaged sector count : 0 No errors occurred End of status report -----BEGIN XLD SIGNATURE----- iR520LEUP59yy3cmUjwm5VeOAA7yl_UsMMIRkwylqhTr.g3bjl_p2uxk4jknK0FjYaS.ucWa8J0mz0i3faO7g6XGnf0CKD7q67BzQiO -----END XLD SIGNATURE-----
https://www.youtube.com/watch?v=8x2D7UXR2EM

Всего файлов в раздаче: 14 
01 - Scared Of Fear.flac32.34 MB
02 - React, Respond.flac26.50 MB
03 - Wreckage.flac37.29 MB
04 - Dark Matter.flac25.43 MB
05 - Won't Tell.flac26.16 MB
06 - Upper Hand.flac38.23 MB
07 - Waiting For Stevie.flac39.44 MB
08 - Running.flac18.19 MB
09 - Something Special.flac27.95 MB
10 - Got To Give.flac32.97 MB
Показать все файлы

Похожие раздачи по запросу - Pearl
2024-05-03 magnet Pearl Jam - Dark Matter (2024) MP3 111.11 MB ↑ 0 ↓ 0

Кто качает (только для создателя раздачи и модераторов): Локальные пиры отсутствуют

Комментарии


Зарегистрируйтесь чтобы добавить комментарий
Торрент клиент
byTorrent - программа для загрузки торрент-файлов.

Скачать byTorrent.exe (1,5 МБ)

Скачать byTorrent.zip (0,6 МБ)

Поддержи torrent.by
российских рублей
(300 российских рублей это 4$)

Обратная связь rss

End game ©