↑↓torrent.by
Поиск
Логин:  Регистрация
Пароль:

Pearl Jam - Dark Matter [24Bit, Hi-Res] (2024) FLAC

download Скачать торрент-файл   magnet Магнитная ссылка Размер: 630.76 MB Добавлен: 2024-04-20 17:00
Пиры будут получены из сети DHT
Последний сидер был замечен 2024-04-21 10:29
Pearl Jam - Dark Matter (2024) Жанр: Rock Издание: Pearl Jam / Monkeywrench Источник: qobuz Продолжительность: 00:48:21 Seattle, Washington https://pearljam.bandcamp.com/music https://www.facebook.com/PearlJam Кодек: FLAC 24/48 Битрейт: Lossless|WEB-DL Тип рипа: tracks Треклист: 01. Scared Of Fear 02. React, Respond 03. Wreckage 04. Dark Matter 05. Won’t Tell 06. Upper Hand 07. Waiting For Stevie 08. Running 09. Something Special 10. Got To Give 11. Setting Sun
[+] Отчёт MediaInfo: Полное имя : E:TORRENT_NEWPearl Jam - Dark Matter - 2024 (24-48) �1 - Scared Of Fear.flac Формат : FLAC Формат/Информация : Free Lossless Audio Codec Размер файла : 58,5 Мбайт Продолжительность : 4 м. 24 с. Режим общего битрейта : Переменный Общий поток : 1857 Кбит/сек Альбом : Dark Matter Альбом/Исполнитель : Pearl Jam Часть : 1 Часть/Всего : 1 Трек : Scared Of Fear Трек/Положение : 1 Трек/Всего : 11 Исполнитель : Pearl Jam Композитор : Andrew Watt Жанр : Rock Дата записи : 2024 ISRC : USUG12309751 Правообладатель : ℗ 2024 Monkeywrench, Inc. Обложка : Yes Тип обложки : Cover (front) MIME-тип обложки : image/jpeg UPC : 0602465142976 MEDIATYPE : album ITUNESADVISORY : 1 Аудио Формат : FLAC Формат/Информация : Free Lossless Audio Codec Продолжительность : 4 м. 24 с. Вид битрейта : Переменный Битрейт : 1843 Кбит/сек Каналы : 2 канала Частота : 48,0 КГц Битовая глубина : 24 бит Размер потока : 58,0 Мбайт (99%) Общее Полное имя : E:TORRENT_NEWPearl Jam - Dark Matter - 2024 (24-48) �2 - React, Respond.flac Формат : FLAC Формат/Информация : Free Lossless Audio Codec Размер файла : 47,5 Мбайт Продолжительность : 3 м. 30 с. Режим общего битрейта : Переменный Общий поток : 1889 Кбит/сек Альбом : Dark Matter Альбом/Исполнитель : Pearl Jam Часть : 1 Часть/Всего : 1 Трек : React, Respond Трек/Положение : 2 Трек/Всего : 11 Исполнитель : Pearl Jam Композитор : Andrew Watt Жанр : Rock Дата записи : 2024 ISRC : USUG12309752 Правообладатель : ℗ 2024 Monkeywrench, Inc. Обложка : Yes Тип обложки : Cover (front) MIME-тип обложки : image/jpeg UPC : 0602465142976 MEDIATYPE : album ITUNESADVISORY : 1 Аудио Формат : FLAC Формат/Информация : Free Lossless Audio Codec Продолжительность : 3 м. 30 с. Вид битрейта : Переменный Битрейт : 1872 Кбит/сек Каналы : 2 канала Частота : 48,0 КГц Битовая глубина : 24 бит Размер потока : 47,1 Мбайт (99%) Общее Полное имя : E:TORRENT_NEWPearl Jam - Dark Matter - 2024 (24-48) �3 - Wreckage.flac Формат : FLAC Формат/Информация : Free Lossless Audio Codec Размер файла : 67,2 Мбайт Продолжительность : 5 м. 0 с. Режим общего битрейта : Переменный Общий поток : 1877 Кбит/сек Альбом : Dark Matter Альбом/Исполнитель : Pearl Jam Часть : 1 Часть/Всего : 1 Трек : Wreckage Трек/Положение : 3 Трек/Всего : 11 Исполнитель : Pearl Jam Композитор : Andrew Watt Жанр : Rock Дата записи : 2024 ISRC : USUG12309753 Правообладатель : ℗ 2024 Monkeywrench, Inc. Обложка : Yes Тип обложки : Cover (front) MIME-тип обложки : image/jpeg UPC : 0602465142976 MEDIATYPE : album ITUNESADVISORY : 1 Аудио Формат : FLAC Формат/Информация : Free Lossless Audio Codec Продолжительность : 5 м. 0 с. Вид битрейта : Переменный Битрейт : 1865 Кбит/сек Каналы : 2 канала Частота : 48,0 КГц Битовая глубина : 24 бит Размер потока : 66,8 Мбайт (99%) Общее Полное имя : E:TORRENT_NEWPearl Jam - Dark Matter - 2024 (24-48) �4 - Dark Matter.flac Формат : FLAC Формат/Информация : Free Lossless Audio Codec Размер файла : 46,5 Мбайт Продолжительность : 3 м. 31 с. Режим общего битрейта : Переменный Общий поток : 1840 Кбит/сек Альбом : Dark Matter Альбом/Исполнитель : Pearl Jam Часть : 1 Часть/Всего : 1 Трек : Dark Matter Трек/Положение : 4 Трек/Всего : 11 Исполнитель : Pearl Jam Композитор : Andrew Watt Жанр : Rock Дата записи : 2024 ISRC : USUG12309749 Правообладатель : ℗ 2024 Monkeywrench, Inc. Обложка : Yes Тип обложки : Cover (front) MIME-тип обложки : image/jpeg UPC : 0602465142976 MEDIATYPE : album ITUNESADVISORY : 1 Аудио Формат : FLAC Формат/Информация : Free Lossless Audio Codec Продолжительность : 3 м. 31 с. Вид битрейта : Переменный Битрейт : 1824 Кбит/сек Каналы : 2 канала Частота : 48,0 КГц Битовая глубина : 24 бит Размер потока : 46,0 Мбайт (99%) Общее Полное имя : E:TORRENT_NEWPearl Jam - Dark Matter - 2024 (24-48) �5 - Won't Tell.flac Формат : FLAC Формат/Информация : Free Lossless Audio Codec Размер файла : 47,1 Мбайт Продолжительность : 3 м. 28 с. Режим общего битрейта : Переменный Общий поток : 1898 Кбит/сек Альбом : Dark Matter Альбом/Исполнитель : Pearl Jam Часть : 1 Часть/Всего : 1 Трек : Won't Tell Трек/Положение : 5 Трек/Всего : 11 Исполнитель : Pearl Jam Композитор : Andrew Watt Жанр : Rock Дата записи : 2024 ISRC : USUG12309754 Правообладатель : ℗ 2024 Monkeywrench, Inc. Обложка : Yes Тип обложки : Cover (front) MIME-тип обложки : image/jpeg UPC : 0602465142976 MEDIATYPE : album ITUNESADVISORY : 1 Аудио Формат : FLAC Формат/Информация : Free Lossless Audio Codec Продолжительность : 3 м. 28 с. Вид битрейта : Переменный Битрейт : 1881 Кбит/сек Каналы : 2 канала Частота : 48,0 КГц Битовая глубина : 24 бит Размер потока : 46,7 Мбайт (99%) Общее Полное имя : E:TORRENT_NEWPearl Jam - Dark Matter - 2024 (24-48) �6 - Upper Hand.flac Формат : FLAC Формат/Информация : Free Lossless Audio Codec Размер файла : 73,1 Мбайт Продолжительность : 5 м. 57 с. Режим общего битрейта : Переменный Общий поток : 1715 Кбит/сек Альбом : Dark Matter Альбом/Исполнитель : Pearl Jam Часть : 1 Часть/Всего : 1 Трек : Upper Hand Трек/Положение : 6 Трек/Всего : 11 Исполнитель : Pearl Jam Композитор : Andrew Watt Жанр : Rock Дата записи : 2024 ISRC : USUG12309755 Правообладатель : ℗ 2024 Monkeywrench, Inc. Обложка : Yes Тип обложки : Cover (front) MIME-тип обложки : image/jpeg UPC : 0602465142976 MEDIATYPE : album ITUNESADVISORY : 1 Аудио Формат : FLAC Формат/Информация : Free Lossless Audio Codec Продолжительность : 5 м. 57 с. Вид битрейта : Переменный Битрейт : 1705 Кбит/сек Каналы : 2 канала Частота : 48,0 КГц Битовая глубина : 24 бит Размер потока : 72,6 Мбайт (99%) Общее Полное имя : E:TORRENT_NEWPearl Jam - Dark Matter - 2024 (24-48) �7 - Waiting For Stevie.flac Формат : FLAC Формат/Информация : Free Lossless Audio Codec Размер файла : 73,3 Мбайт Продолжительность : 5 м. 41 с. Режим общего битрейта : Переменный Общий поток : 1801 Кбит/сек Альбом : Dark Matter Альбом/Исполнитель : Pearl Jam Часть : 1 Часть/Всего : 1 Трек : Waiting For Stevie Трек/Положение : 7 Трек/Всего : 11 Исполнитель : Pearl Jam Композитор : Andrew Watt Жанр : Rock Дата записи : 2024 ISRC : USUG12309756 Правообладатель : ℗ 2024 Monkeywrench, Inc. Обложка : Yes Тип обложки : Cover (front) MIME-тип обложки : image/jpeg UPC : 0602465142976 MEDIATYPE : album ITUNESADVISORY : 1 Аудио Формат : FLAC Формат/Информация : Free Lossless Audio Codec Продолжительность : 5 м. 41 с. Вид битрейта : Переменный Битрейт : 1791 Кбит/сек Каналы : 2 канала Частота : 48,0 КГц Битовая глубина : 24 бит Размер потока : 72,8 Мбайт (99%) Общее Полное имя : E:TORRENT_NEWPearl Jam - Dark Matter - 2024 (24-48) �8 - Running.flac Формат : FLAC Формат/Информация : Free Lossless Audio Codec Размер файла : 32,5 Мбайт Продолжительность : 2 м. 19 с. Режим общего битрейта : Переменный Общий поток : 1953 Кбит/сек Альбом : Dark Matter Альбом/Исполнитель : Pearl Jam Часть : 1 Часть/Всего : 1 Трек : Running Трек/Положение : 8 Трек/Всего : 11 Исполнитель : Pearl Jam Композитор : Andrew Watt Жанр : Rock Дата записи : 2024 ISRC : USUG12309757 Правообладатель : ℗ 2024 Monkeywrench, Inc. Обложка : Yes Тип обложки : Cover (front) MIME-тип обложки : image/jpeg UPC : 0602465142976 MEDIATYPE : album ITUNESADVISORY : 1 Аудио Формат : FLAC Формат/Информация : Free Lossless Audio Codec Продолжительность : 2 м. 19 с. Вид битрейта : Переменный Битрейт : 1927 Кбит/сек Каналы : 2 канала Частота : 48,0 КГц Битовая глубина : 24 бит Размер потока : 32,0 Мбайт (99%) Общее Полное имя : E:TORRENT_NEWPearl Jam - Dark Matter - 2024 (24-48) �9 - Something Special.flac Формат : FLAC Формат/Информация : Free Lossless Audio Codec Размер файла : 52,2 Мбайт Продолжительность : 4 м. 6 с. Режим общего битрейта : Переменный Общий поток : 1775 Кбит/сек Альбом : Dark Matter Альбом/Исполнитель : Pearl Jam Часть : 1 Часть/Всего : 1 Трек : Something Special Трек/Положение : 9 Трек/Всего : 11 Исполнитель : Pearl Jam Композитор : Andrew Watt Жанр : Rock Дата записи : 2024 ISRC : USUG12309758 Правообладатель : ℗ 2024 Monkeywrench, Inc. Обложка : Yes Тип обложки : Cover (front) MIME-тип обложки : image/jpeg UPC : 0602465142976 MEDIATYPE : album ITUNESADVISORY : 1 Аудио Формат : FLAC Формат/Информация : Free Lossless Audio Codec Продолжительность : 4 м. 6 с. Вид битрейта : Переменный Битрейт : 1760 Кбит/сек Каналы : 2 канала Частота : 48,0 КГц Битовая глубина : 24 бит Размер потока : 51,8 Мбайт (99%) Общее Полное имя : E:TORRENT_NEWPearl Jam - Dark Matter - 2024 (24-48) 10 - Got To Give.flac Формат : FLAC Формат/Информация : Free Lossless Audio Codec Размер файла : 60,5 Мбайт Продолжительность : 4 м. 37 с. Режим общего битрейта : Переменный Общий поток : 1828 Кбит/сек Альбом : Dark Matter Альбом/Исполнитель : Pearl Jam Часть : 1 Часть/Всего : 1 Трек : Got To Give Трек/Положение : 10 Трек/Всего : 11 Исполнитель : Pearl Jam Композитор : Andrew Watt Жанр : Rock Дата записи : 2024 ISRC : USUG12309759 Правообладатель : ℗ 2024 Monkeywrench, Inc. Обложка : Yes Тип обложки : Cover (front) MIME-тип обложки : image/jpeg UPC : 0602465142976 MEDIATYPE : album ITUNESADVISORY : 1 Аудио Формат : FLAC Формат/Информация : Free Lossless Audio Codec Продолжительность : 4 м. 37 с. Вид битрейта : Переменный Битрейт : 1815 Кбит/сек Каналы : 2 канала Частота : 48,0 КГц Битовая глубина : 24 бит Размер потока : 60,0 Мбайт (99%) Общее Полное имя : E:TORRENT_NEWPearl Jam - Dark Matter - 2024 (24-48) 11 - Setting Sun.flac Формат : FLAC Формат/Информация : Free Lossless Audio Codec Размер файла : 72,6 Мбайт Продолжительность : 5 м. 43 с. Режим общего битрейта : Переменный Общий поток : 1771 Кбит/сек Альбом : Dark Matter Альбом/Исполнитель : Pearl Jam Часть : 1 Часть/Всего : 1 Трек : Setting Sun Трек/Положение : 11 Трек/Всего : 11 Исполнитель : Pearl Jam Композитор : Andrew Watt Жанр : Rock Дата записи : 2024 ISRC : USUG12309760 Правообладатель : ℗ 2024 Monkeywrench, Inc. Обложка : Yes Тип обложки : Cover (front) MIME-тип обложки : image/jpeg UPC : 0602465142976 MEDIATYPE : album ITUNESADVISORY : 1 Аудио Формат : FLAC Формат/Информация : Free Lossless Audio Codec Продолжительность : 5 м. 43 с. Вид битрейта : Переменный Битрейт : 1761 Кбит/сек Каналы : 2 канала Частота : 48,0 КГц Битовая глубина : 24 бит Размер потока : 72,1 Мбайт (99%)
[+] DR Log: foobar2000 1.1.11 / Dynamic Range Meter 1.1.1 log date: 2024-04-19 11:45:40 -------------------------------------------------------------------------------- Analyzed: Pearl Jam / Dark Matter -------------------------------------------------------------------------------- DR Peak RMS Duration Track -------------------------------------------------------------------------------- DR5 -0.20 dB -5.95 dB 4:24 01-Scared Of Fear DR5 -0.20 dB -6.25 dB 3:31 02-React, Respond DR5 -0.20 dB -6.73 dB 5:00 03-Wreckage DR6 -0.20 dB -6.44 dB 3:32 04-Dark Matter DR5 -0.20 dB -5.96 dB 3:28 05-Won't Tell DR5 -0.20 dB -7.76 dB 5:57 06-Upper Hand DR5 -0.20 dB -6.34 dB 5:41 07-Waiting For Stevie DR5 -0.20 dB -6.06 dB 2:19 08-Running DR6 -0.20 dB -6.99 dB 4:07 09-Something Special DR5 -0.20 dB -6.43 dB 4:37 10-Got To Give DR5 -0.20 dB -6.77 dB 5:44 11-Setting Sun -------------------------------------------------------------------------------- Number of tracks: 11 Official DR value: DR5 Samplerate: 48000 Hz Channels: 2 Bits per sample: 24 Bitrate: 1761 kbps Codec: FLAC ================================================================================
https://www.youtube.com/watch?v=8x2D7UXR2EM

Всего файлов в раздаче: 11 
01 - Scared Of Fear.flac58.47 MB
02 - React, Respond.flac47.48 MB
03 - Wreckage.flac67.23 MB
04 - Dark Matter.flac46.45 MB
05 - Won't Tell.flac47.12 MB
06 - Upper Hand.flac73.05 MB
07 - Waiting For Stevie.flac73.26 MB
08 - Running.flac32.45 MB
09 - Something Special.flac52.23 MB
10 - Got To Give.flac60.45 MB
Показать все файлы

Похожие раздачи по запросу - Pearl
2024-05-03 magnet Pearl Jam - Dark Matter (2024) MP3 111.11 MB ↑ 0 ↓ 0
2024-04-20 magnet Pearl Jam - Dark Matter (2024) FLAC 343.50 MB ↑ 0 ↓ 0

Кто качает (только для создателя раздачи и модераторов): Локальные пиры отсутствуют

Комментарии


Зарегистрируйтесь чтобы добавить комментарий
Торрент клиент
byTorrent - программа для загрузки торрент-файлов.

Скачать byTorrent.exe (1,5 МБ)

Скачать byTorrent.zip (0,6 МБ)

Поддержи torrent.by
российских рублей
(300 российских рублей это 4$)

Обратная связь rss

End game ©