↑↓torrent.by
Поиск
Логин:  Регистрация
Пароль:

Венсан должен умереть / Vincent doit mourir / Vincent Must Die (2023) BDRip 1080p от ExKinoRay | P

download Скачать торрент-файл   magnet Магнитная ссылка Размер: 7.33 GB Раздают: 2 Качают: 0 Добавлен: 2024-04-20 17:00
Пиры будут получены из сети DHT
Последний сидер был замечен сегодня в 08:46
Информация о фильме Название: Венсан должен умереть Оригинальное название: Vincent doit mourir (Vincent Must Die) Год выхода: 2023 Жанр: Фэнтези, триллер, драма, комедия Режиссер: Стефан Кастанг В ролях: Карим Леклу, Вимала Понс, Франсуа Шатто, Жан-Реми Шез, Улисс Женевре, Каролин Руз, Эммануэль Верите, Себастьян Шабан, Бенуа Ламберт О фильме: Однажды коллеги нападают на дизайнера Венсана - бьют его по лицу ноутбуком и ручкой протыкают запястье. Мужчине дают отпуск, и он уезжает за город к родителям. На заправке Венсан знакомится с бездомным, и тот рассказывает, что подобных Венсану людей зовут сателлитами: они одним лишь взглядом провоцируют других на насилие и потому живут изолированно от общества. Страна: Франция, Бельгия Студия: Capricci Films, Bobi Lux, Gapbusters Продолжительность: 01:48:16 Перевод: Профессиональный многоголосый (Тоникс Медиа) по заказу Русский репортаж Файл Кодек: MPEG-4 AVC Качество: BDRip 1080 Видео: MPEG-4 AVC, 8000 Кбит/с, 1920x804 Звук: Русский (AC3, 2 ch, 192 Кбит/с), французский (DTS, 6 ch, 1509 Кбит/с) Субтитры: Французские Релиз от: Реклама, любого вида, отсутствует.
[+] MediaInfo General Complete name : Vincent.doit.mourir.2023.BDRip.1080p.ExKinoRay.mkv Format : Matroska Format version : Version 2 File size : 7.33 GiB Duration : 1 h 48 min Overall bit rate : 9 685 kb/s Encoded date : UTC 2024-04-20 11:06:08 Writing application : mkvmerge v5.8.0 ('No Sleep / Pillow') built on Sep 2 2012 15:37:04 Writing library : libebml v1.2.3 + libmatroska v1.3.0 Video ID : 1 Format : AVC Format/Info : Advanced Video Codec Format profile : High@L4.1 Format settings : CABAC / 5 Ref Frames Format settings, CABAC : Yes Format settings, Reference : 5 frames Codec ID : V_MPEG4/ISO/AVC Duration : 1 h 48 min Bit rate : 8 000 kb/s Width : 1 920 pixels Height : 804 pixels Display aspect ratio : 2.40:1 Frame rate mode : Constant Frame rate : 24.000 FPS Color space : YUV Chroma subsampling : 4:2:0 Bit depth : 8 bits Scan type : Progressive Bits/(Pixel*Frame) : 0.216 Stream size : 5.89 GiB (80%) Writing library : x264 core 164 r3065 ae03d92 Encoding settings : cabac=1 / ref=5 / deblock=1:-3:-3 / analyse=0x3:0x133 / me=umh / subme=10 / psy=1 / psy_rd=1.00:0.00 / mixed_ref=1 / me_range=64 / chroma_me=1 / trellis=2 / 8x8dct=1 / cqm=0 / deadzone=21,11 / fast_pskip=0 / chroma_qp_offset=-2 / threads=18 / lookahead_threads=4 / sliced_threads=0 / nr=0 / decimate=0 / interlaced=0 / bluray_compat=0 / constrained_intra=0 / bframes=16 / b_pyramid=2 / b_adapt=2 / b_bias=0 / direct=3 / weightb=1 / open_gop=0 / weightp=2 / keyint=240 / keyint_min=24 / scenecut=40 / intra_refresh=0 / rc_lookahead=240 / rc=2pass / mbtree=0 / bitrate=8000 / ratetol=1.0 / qcomp=0.60 / qpmin=0 / qpmax=69 / qpstep=4 / cplxblur=20.0 / qblur=0.5 / vbv_maxrate=62500 / vbv_bufsize=78125 / nal_hrd=none / filler=0 / ip_ratio=1.40 / pb_ratio=1.30 / aq=2:1.00 Language : French Default : Yes Forced : No Color range : Limited Color primaries : BT.709 Transfer characteristics : BT.709 Matrix coefficients : BT.709 Audio #1 ID : 2 Format : AC-3 Format/Info : Audio Coding 3 Commercial name : Dolby Digital Codec ID : A_AC3 Duration : 1 h 48 min Bit rate mode : Constant Bit rate : 192 kb/s Channel(s) : 2 channels Channel layout : L R Sampling rate : 48.0 kHz Frame rate : 31.250 FPS (1536 SPF) Compression mode : Lossy Stream size : 149 MiB (2%) Language : Russian Service kind : Complete Main Default : Yes Forced : No Audio #2 ID : 3 Format : DTS Format/Info : Digital Theater Systems Codec ID : A_DTS Duration : 1 h 48 min Bit rate mode : Constant Bit rate : 1 509 kb/s Channel(s) : 6 channels Channel layout : C L R Ls Rs LFE Sampling rate : 48.0 kHz Frame rate : 93.750 FPS (512 SPF) Bit depth : 24 bits Compression mode : Lossy Stream size : 1.14 GiB (16%) Language : French Default : No Forced : No Text ID : 4 Format : UTF-8 Codec ID : S_TEXT/UTF8 Codec ID/Info : UTF-8 Plain Text Title : SDH Language : French Default : No Forced : No Menu 00:00:00.000 : :chapter01 00:14:08.958 : :chapter02 00:27:06.625 : :chapter03 00:40:24.042 : :chapter04 00:52:29.375 : :chapter05 01:08:24.458 : :chapter06 01:21:21.375 : :chapter07 01:35:11.875 : :chapter08
[+] Скриншоты

Всего файлов в раздаче: 1 
Vincent.doit.mourir.2023.BDRip.1080p.ExKinoRay.mkv7.33 GB

Похожие раздачи по запросу - Венсан
2024-04-21 magnet Венсан должен умереть / Vincent doit mourir / Vincent Must Die (2023) BDRip 720p от ExKinoRay | P 3.65 GB ↑ 0 ↓ 0
2024-04-21 magnet Венсан должен умереть / Vincent doit mourir / Vincent Must Die (2023) HDRip от New-Team | P 1.46 GB ↑ 0 ↓ 0

Кто качает (только для создателя раздачи и модераторов):
ПользовательIP:портОтдалПринялОстатокСидируетТоррент клиентОбновился
1 Аноним 91.234.172.51:6890 0.00 B 0.00 B 0.00 B да -tT1730- 08:40 2024-05-19
2 zewil 37.213.63.157:9396 0.00 B 0.00 B 0.00 B да -qB4390- 08:46 2024-05-19

Комментарии


Зарегистрируйтесь чтобы добавить комментарий
Торрент клиент
byTorrent - программа для загрузки торрент-файлов.

Скачать byTorrent.exe (1,5 МБ)

Скачать byTorrent.zip (0,6 МБ)

Поддержи torrent.by
российских рублей
(300 российских рублей это 4$)

Обратная связь rss

End game ©