↑↓torrent.by
Поиск
Логин:  Регистрация
Пароль:

Аладдин / Aladdin (1992) WEB-DL 1080p | D | Локализованная версия

download Скачать торрент-файл   magnet Магнитная ссылка Размер: 4.18 GB Раздают: 0 Качают: 1 Добавлен: 2024-04-20 17:00
Пиры будут получены из сети DHT
Последний сидер был замечен вчера в 13:32
Информация о фильме Название: Аладдин Оригинальное название: Aladdin Год выхода: 1992 Жанр: Мультфильм, мюзикл, фэнтези, мелодрама, комедия, приключения, семейный Режиссер: Рон Клементс, Джон Маскер В ролях: Скотт Венгер, Робин Уильямс, Линда Ларкин, Джонатан Фриман, Фрэнк Уэлкер, Гилберт Готтфрид, Дуглас Сил, Чарльз Адлер, Джек Эйнджел, Кори Бертон О фильме : В славном граде Аграба живет Аладдин, веселый воришка с золотым сердцем. Живет и не знает, что вскоре его ждет величайшее приключение в жизни. Ведь только с его помощью черный маг Джафар может овладеть невероятным сокровищем — лампой, в которой заключен исполняющий желания могущественный Джинн. И только хитроумие, смекалка и доброта Аладдина и его друзей — обезьянки Абу, принцессы Джасмин и самого Джинна способны помешать Джафару завладеть лампой и захватить власть над миром… Страна: США, Япония Студия: Walt Disney Feature Animation, Walt Disney Pictures Продолжительность: 01:27:17 Перевод: Дублированный | Невафильм Субтитры: Русские (Full), Английские Файл Формат: MKV Качество видео: WEB-DL 1080p | Локализованная версия Видео: АVC/H.264, 1920x1036, ~6000 Kbps Аудио 1: E-AC-3, 6 ch, 448 kbps - Русский (Dub, Невафильм) Аудио 2: E-AC-3, 6 ch, 448 kbps - Английский
[+] M/IComplete name : Aladdin.WEB-DL.KP.1080p-SOFCJ.mkv Format : Matroska Format version : Version 4 File size : 4.18 GiB Duration : 1 h 27 min Overall bit rate : 6 861 kb/s Movie name : Aladdin.WEB-DL.KP.1080p-SOFCJ Encoded date : UTC 2022-11-23 19:47:12 Writing application : mkvmerge v43.0.0 ('The Quartermaster') 64-bit Writing library : libebml v1.3.10 + libmatroska v1.5.2 Cover : Yes Attachments : cover.jpg Video ID : 1 Format : AVC Format/Info : Advanced Video Codec Format profile : High@L4 Format settings : CABAC / 4 Ref Frames Format settings, CABAC : Yes Format settings, Reference : 4 frames Codec ID : V_MPEG4/ISO/AVC Duration : 1 h 27 min Bit rate : 6 000 kb/s Width : 1 920 pixels Height : 1 036 pixels Display aspect ratio : 1.85:1 Frame rate mode : Constant Frame rate : 25.000 FPS Color space : YUV Chroma subsampling : 4:2:0 Bit depth : 8 bits Scan type : Progressive Bits/(Pixel*Frame) : 0.121 Stream size : 3.63 GiB (87%) Title : Writing library : x264 core 157 Encoding settings : cabac=1 / ref=4 / deblock=1:0:0 / analyse=0x3:0x133 / me=umh / subme=10 / psy=1 / psy_rd=1.00:0.00 / mixed_ref=1 / me_range=24 / chroma_me=1 / trellis=2 / 8x8dct=1 / cqm=0 / deadzone=21,11 / fast_pskip=1 / chroma_qp_offset=-2 / threads=32 / lookahead_threads=5 / sliced_threads=0 / nr=0 / decimate=1 / interlaced=0 / bluray_compat=0 / stitchable=1 / constrained_intra=0 / bframes=8 / b_pyramid=2 / b_adapt=2 / b_bias=0 / direct=3 / weightb=1 / open_gop=0 / weightp=2 / keyint=250 / keyint_min=25 / scenecut=40 / intra_refresh=0 / rc_lookahead=60 / rc=2pass / mbtree=1 / bitrate=6000 / ratetol=1.0 / qcomp=0.60 / qpmin=0 / qpmax=69 / qpstep=4 / cplxblur=20.0 / qblur=0.5 / vbv_maxrate=6600 / vbv_bufsize=12000 / nal_hrd=none / filler=0 / ip_ratio=1.40 / aq=1:1.00 Language : Russian Default : Yes Forced : No Audio #1 ID : 2 Format : E-AC-3 Format/Info : Enhanced AC-3 Commercial name : Dolby Digital Plus Codec ID : A_EAC3 Duration : 1 h 27 min Bit rate mode : Constant Bit rate : 448 kb/s Channel(s) : 6 channels Channel layout : L R C LFE Ls Rs Sampling rate : 48.0 kHz Frame rate : 31.250 FPS (1536 SPF) Compression mode : Lossy Stream size : 280 MiB (7%) Title : Dub Language : Russian Service kind : Complete Main Default : Yes Forced : No Audio #2 ID : 3 Format : E-AC-3 Format/Info : Enhanced AC-3 Commercial name : Dolby Digital Plus Codec ID : A_EAC3 Duration : 1 h 27 min Bit rate mode : Constant Bit rate : 448 kb/s Channel(s) : 6 channels Channel layout : L R C LFE Ls Rs Sampling rate : 48.0 kHz Frame rate : 31.250 FPS (1536 SPF) Compression mode : Lossy Stream size : 280 MiB (7%) Language : English Service kind : Complete Main Default : No Forced : No Text #1 ID : 4 Format : UTF-8 Codec ID : S_TEXT/UTF8 Codec ID/Info : UTF-8 Plain Text Duration : 1 h 25 min Bit rate : 97 b/s Count of elements : 1196 Stream size : 61.2 KiB (0%) Language : Russian Default : No Forced : No Text #2 ID : 5 Format : UTF-8 Codec ID : S_TEXT/UTF8 Codec ID/Info : UTF-8 Plain Text Duration : 1 h 26 min Bit rate : 66 b/s Count of elements : 1348 Stream size : 41.9 KiB (0%) Language : English Default : No Forced : No

Всего файлов в раздаче: 1 
Aladdin.WEB-DL.KP.1080p-SOFCJ.mkv4.18 GB

Кто качает (только для создателя раздачи и модераторов):
ПользовательIP:портОтдалПринялОстатокСидируетТоррент клиентОбновился
1 Аноним 206.237.205.185:43921 0.00 B 1.47 GB 4.11 GB нет -qB4390- 16:32 2024-05-23

Комментарии


Зарегистрируйтесь чтобы добавить комментарий
Торрент клиент
byTorrent - программа для загрузки торрент-файлов.

Скачать byTorrent.exe (1,5 МБ)

Скачать byTorrent.zip (0,6 МБ)

Поддержи torrent.by
российских рублей
(300 российских рублей это 4$)

Обратная связь rss

End game ©