↑↓torrent.by
Поиск
Логин:  Регистрация
Пароль:

Дюна: Часть вторая / Dune: Part Two (2024) UHD WEB-DL-HEVC 2160p | 4K | Dolby Vision TV | D, P, A

download Скачать торрент-файл   magnet Магнитная ссылка Размер: 34.34 GB Добавлен: 2024-04-20 17:00
Пиры будут получены из сети DHT
Последний сидер был замечен 2024-05-19 19:03
Название: Дюна: Часть вторая Оригинальное название: Dune: Part Two Год выхода: 2024 Производство: США, Канада / Legendary Entertainment, Warner Bros. Entertainment, Villeneuve Films Жанр: Фантастика, боевик, драма, приключения Перевод: Профессиональный дублированный, неофициальный дублированный, профессиональный многоголосый, авторский одноголосый Продолжительность: 02:45:48 Режиссёр: Дени Вильнёв В ролях: Тимоти Шаламе, Зендея, Ребекка Фергюсон, Хавьер Бардем, Джош Бролин, Остин Батлер, Флоренс Пью, Дэйв Батиста, Кристофер Уокен, Леа Сейду Описание: Потеряв всё, Пол Атрейдес ищет поддержки у населения Арракиса - фрименов. Ему нужно познать их обычаи и понять, как выживать на планете-пустыне. Только так он может положить конец правлению Харконненов и преобразить Дюну. Но в своих видениях Пол видит лишь страшное будущее: за победой над Великим Домом барона Владимира грядёт Священная война во имя самого Атрейдеса, которая затронет всю вселенную. Пол хочет предотвратить неизбежное, намереваясь закончить духовное преображение в пророка Муад’диба из местных легенд. Формат: MP4 Качество: WEB-DL 2160p Видео: MPEG-H HEVC / 24.5 Mbps / 3840x1608 / 23.976 fps Аудио 01 Русский: E-AC3, 6 ch, 384 Kbps Аудио 02 Русский: AC-3, 6 ch, 384 Kbps Аудио 03 Русский: AC-3, 6 ch, 640 Kbps Аудио 04 Русский: AC-3, 2 ch, 192 Kbps Аудио 05 Русский: AC-3, 2 ch, 192 Kbps Аудио 06 Русский: E-AC3, 6 ch, 768 Kbps Аудио 07 Русский: AC-3, 6 ch, 448 Kbps Аудио 08 Русский: AC-3, 6 ch, 640 Kbps Аудио 09 Русский: E-AC3, 6 ch, 768 Kbps Аудио 10 English: E-AC3 JOC, 6 ch, 768 Kbps Субтитры: Русские (Forced, Full), Английские (Full, SDH) Доп. информация: Релиз с Dolby Vision Profile 5 в контейнере MP4. Видеоряд не содержит слоя HDR. На устройствах без поддержки Dolby Vision будут "поломанные" цвета, как на скриншотах.
[+] MediainfoОбщее Полное имя : E:Dune.Part.Two.2024.2160p.WEB-DL.DDP.5.1.Atmos.DoVi.P5.mp4 Формат : MPEG-4 Профиль формата : Base Media / Version 2 Идентификатор кодека : mp42 (isom/mp42/dby1) Размер файла : 34,3 Гбайт Продолжительность : 2 ч. 45 мин. Режим общего битрейта : Переменный Общий битрейт : 29,7 Мбит/сек Частота кадров : 23,976 кадра/сек Название фильма : Dune. Part Two (2024) Дата кодирования : 2024-04-20 07:43:29 UTC Дата маркировки : 2024-04-20 07:43:29 UTC Программа кодирования : GPAC-2.2.1-rev0-gb34e3851-release-2.2 Обложка : Yes Видео Идентификатор : 1 Формат : HEVC Формат/Информация : High Efficiency Video Coding Профиль формата : Main 10@L5@High Формат HDR : Dolby Vision, Version 1.0, Profile 5, dvhe.05.06, BL+RPU, no metadata compression Идентификатор кодека : dvhe Идентификатор кодека/Информация : High Efficiency Video Coding with Dolby Vision Продолжительность : 2 ч. 45 мин. Битрейт : 24,5 Мбит/сек Ширина : 3 840 пикселей Высота : 1 608 пикселей Высота оригинала : 1 606 пикселей Соотношение сторон дисплея : 2,39:1 Соотношение сторон дисплея оригинала : 2,39:1 Режим частоты кадров : Постоянный Частота кадров : 23,976 (24000/1001) кадра/сек Цветовое пространство : YUV Цветовая субдискретизация : 4:2:0 Битовая глубина : 10 бит Бит/(Пиксели*Кадры) : 0.165 Размер потока : 28,3 Гбайт (82%) Заголовок : Dune. Part Two (2024) Язык : Английский По умолчанию : Да Альтернативная группа : 1 Дата кодирования : 2024-04-16 05:17:05 UTC Дата маркировки : 2024-04-20 07:45:00 UTC mdhd_Duration : 9948063 Поле конфигурации кодека : hvcC+dvcC Аудио #1 Идентификатор : 2 Формат : E-AC-3 Формат/Информация : Enhanced AC-3 Коммерческое название : Dolby Digital Plus Идентификатор кодека : ec-3 Продолжительность : 2 ч. 45 мин. Вид битрейта : Постоянный Битрейт : 384 Кбит/сек Максимальный битрейт : 406 Кбит/сек Канал(-ы) : 6 каналов Расположение каналов : L R C LFE Ls Rs Частота дискретизации : 48,0 КГц Частота кадров : 31,250 кадров/сек (1536 SPF) Метод сжатия : С потерями Размер потока : 455 Мбайт (1%) Заголовок : Dub, Bravo Records Georgia / Movie Dubbing Язык : Русский Вид сервиса : Complete Main По умолчанию : Да Альтернативная группа : 1 Дата кодирования : 2024-04-20 07:44:22 UTC Дата маркировки : 2024-04-20 07:45:00 UTC Аудио #2 Идентификатор : 3 Формат : AC-3 Формат/Информация : Audio Coding 3 Коммерческое название : Dolby Digital Идентификатор кодека : ac-3 Продолжительность : 2 ч. 45 мин. Вид битрейта : Постоянный Битрейт : 384 Кбит/сек Максимальный битрейт : 406 Кбит/сек Канал(-ы) : 6 каналов Расположение каналов : L R C LFE Ls Rs Частота дискретизации : 48,0 КГц Частота кадров : 31,250 кадров/сек (1536 SPF) Метод сжатия : С потерями Размер потока : 455 Мбайт (1%) Заголовок : Dub, Bravo Records Georgia / Movie Dubbing Язык : Русский Вид сервиса : Complete Main По умолчанию : Нет Альтернативная группа : 1 Дата кодирования : 2024-04-20 07:44:26 UTC Дата маркировки : 2024-04-20 07:45:00 UTC AC3_metadata cmixlev : -3.0 dB surmixlev : -3 dB Аудио #3 Идентификатор : 4 Формат : AC-3 Формат/Информация : Audio Coding 3 Коммерческое название : Dolby Digital Идентификатор кодека : ac-3 Продолжительность : 2 ч. 45 мин. Вид битрейта : Постоянный Битрейт : 640 Кбит/сек Максимальный битрейт : 676 Кбит/сек Канал(-ы) : 6 каналов Расположение каналов : L R C LFE Ls Rs Частота дискретизации : 48,0 КГц Частота кадров : 31,250 кадров/сек (1536 SPF) Метод сжатия : С потерями Размер потока : 759 Мбайт (2%) Заголовок : Dub, Red Head Sound Язык : Русский Вид сервиса : Complete Main По умолчанию : Нет Альтернативная группа : 1 Дата кодирования : 2024-04-20 07:44:30 UTC Дата маркировки : 2024-04-20 07:45:00 UTC AC3_metadata cmixlev : -3.0 dB surmixlev : -3 dB Аудио #4 Идентификатор : 5 Формат : AC-3 Формат/Информация : Audio Coding 3 Коммерческое название : Dolby Digital Идентификатор кодека : ac-3 Продолжительность : 2 ч. 45 мин. Вид битрейта : Постоянный Битрейт : 192 Кбит/сек Максимальный битрейт : 203 Кбит/сек Канал(-ы) : 2 канала Расположение каналов : L R Частота дискретизации : 48,0 КГц Частота кадров : 31,250 кадров/сек (1536 SPF) Метод сжатия : С потерями Размер потока : 228 Мбайт (1%) Заголовок : Dub, HDRezka Studio Язык : Русский Вид сервиса : Complete Main По умолчанию : Нет Альтернативная группа : 1 Дата кодирования : 2024-04-20 07:44:34 UTC Дата маркировки : 2024-04-20 07:45:00 UTC Аудио #5 Идентификатор : 6 Формат : AC-3 Формат/Информация : Audio Coding 3 Коммерческое название : Dolby Digital Идентификатор кодека : ac-3 Продолжительность : 2 ч. 45 мин. Вид битрейта : Постоянный Битрейт : 192 Кбит/сек Максимальный битрейт : 203 Кбит/сек Канал(-ы) : 2 канала Расположение каналов : L R Частота дискретизации : 48,0 КГц Частота кадров : 31,250 кадров/сек (1536 SPF) Метод сжатия : С потерями Размер потока : 228 Мбайт (1%) Заголовок : MVO, Jaskier Язык : Русский Вид сервиса : Complete Main По умолчанию : Нет Альтернативная группа : 1 Дата кодирования : 2024-04-20 07:44:36 UTC Дата маркировки : 2024-04-20 07:45:00 UTC Аудио #6 Идентификатор : 7 Формат : E-AC-3 Формат/Информация : Enhanced AC-3 Коммерческое название : Dolby Digital Plus Идентификатор кодека : ec-3 Продолжительность : 2 ч. 45 мин. Вид битрейта : Постоянный Битрейт : 768 Кбит/сек Максимальный битрейт : 811 Кбит/сек Канал(-ы) : 6 каналов Расположение каналов : L R C LFE Ls Rs Частота дискретизации : 48,0 КГц Частота кадров : 31,250 кадров/сек (1536 SPF) Метод сжатия : С потерями Размер потока : 911 Мбайт (3%) Заголовок : MVO, LostFilm Язык : Русский Вид сервиса : Complete Main По умолчанию : Нет Альтернативная группа : 1 Дата кодирования : 2024-04-20 07:44:39 UTC Дата маркировки : 2024-04-20 07:45:00 UTC Аудио #7 Идентификатор : 8 Формат : AC-3 Формат/Информация : Audio Coding 3 Коммерческое название : Dolby Digital Идентификатор кодека : ac-3 Продолжительность : 2 ч. 45 мин. Вид битрейта : Постоянный Битрейт : 448 Кбит/сек Максимальный битрейт : 473 Кбит/сек Канал(-ы) : 6 каналов Расположение каналов : L R C LFE Ls Rs Частота дискретизации : 48,0 КГц Частота кадров : 31,250 кадров/сек (1536 SPF) Метод сжатия : С потерями Размер потока : 531 Мбайт (2%) Заголовок : MVO, TVShows Язык : Русский Вид сервиса : Complete Main По умолчанию : Нет Альтернативная группа : 1 Дата кодирования : 2024-04-20 07:44:44 UTC Дата маркировки : 2024-04-20 07:45:00 UTC AC3_metadata cmixlev : -4.5 dB surmixlev : -6 dB Аудио #8 Идентификатор : 9 Формат : AC-3 Формат/Информация : Audio Coding 3 Коммерческое название : Dolby Digital Идентификатор кодека : ac-3 Продолжительность : 2 ч. 45 мин. Вид битрейта : Постоянный Битрейт : 640 Кбит/сек Максимальный битрейт : 676 Кбит/сек Канал(-ы) : 6 каналов Расположение каналов : L R C LFE Ls Rs Частота дискретизации : 48,0 КГц Частота кадров : 31,250 кадров/сек (1536 SPF) Метод сжатия : С потерями Размер потока : 759 Мбайт (2%) Заголовок : AVO, Юрий Сербин Язык : Русский Вид сервиса : Complete Main По умолчанию : Нет Альтернативная группа : 1 Дата кодирования : 2024-04-20 07:44:47 UTC Дата маркировки : 2024-04-20 07:45:00 UTC AC3_metadata cmixlev : -3.0 dB surmixlev : -3 dB Аудио #9 Идентификатор : 10 Формат : E-AC-3 Формат/Информация : Enhanced AC-3 Коммерческое название : Dolby Digital Plus Идентификатор кодека : ec-3 Продолжительность : 2 ч. 45 мин. Вид битрейта : Постоянный Битрейт : 768 Кбит/сек Максимальный битрейт : 811 Кбит/сек Канал(-ы) : 6 каналов Расположение каналов : L R C LFE Ls Rs Частота дискретизации : 48,0 КГц Частота кадров : 31,250 кадров/сек (1536 SPF) Метод сжатия : С потерями Размер потока : 911 Мбайт (3%) Заголовок : VO, Михаил Яроцкий Язык : Русский Вид сервиса : Complete Main По умолчанию : Нет Альтернативная группа : 1 Дата кодирования : 2024-04-20 07:44:51 UTC Дата маркировки : 2024-04-20 07:45:00 UTC Аудио #10 Идентификатор : 11 Формат : E-AC-3 JOC Формат/Информация : Enhanced AC-3 with Joint Object Coding Коммерческое название : Dolby Digital Plus with Dolby Atmos Идентификатор кодека : ec-3 Продолжительность : 2 ч. 45 мин. Вид битрейта : Постоянный Битрейт : 768 Кбит/сек Максимальный битрейт : 811 Кбит/сек Канал(-ы) : 6 каналов Расположение каналов : L R C LFE Ls Rs Частота дискретизации : 48,0 КГц Частота кадров : 31,250 кадров/сек (1536 SPF) Метод сжатия : С потерями Размер потока : 911 Мбайт (3%) Заголовок : Original Язык : Английский Вид сервиса : Complete Main По умолчанию : Нет Альтернативная группа : 1 Дата кодирования : 2024-04-20 07:44:55 UTC Дата маркировки : 2024-04-20 07:45:00 UTC Показатель сложности : 16 Количество динамических объектов : 15 Число каналов бэда : 1 канал Конфигурация каналов бэда : LFE Текст #1 Идентификатор : 12 Формат : Timed Text Идентификатор кодека : tx3g Продолжительность : 2 ч. 39 мин. Вид битрейта : Переменный Битрейт : 8 бит/сек Частота кадров : 0,045 кадр/сек Размер потока : 9,36 КиБ (0%) Заголовок : Forced Язык : Русский По умолчанию : Да Принудительно : Нет Альтернативная группа : 2 Дата кодирования : 2024-04-20 07:44:59 UTC Дата маркировки : 2024-04-20 07:45:00 UTC Количество событий : 214 Текст #2 Идентификатор : 13 Формат : Timed Text Идентификатор кодека : tx3g Продолжительность : 2 ч. 45 мин. Вид битрейта : Переменный Битрейт : 51 бит/сек Частота кадров : 0,268 кадр/сек Размер потока : 61,4 КиБ (0%) Заголовок : Full Язык : Русский Принудительно : Нет Дата кодирования : 2024-04-20 07:44:59 UTC Дата маркировки : 2024-04-20 07:45:00 UTC Количество событий : 1331 Текст #3 Идентификатор : 14 Формат : Timed Text Идентификатор кодека : tx3g Продолжительность : 2 ч. 36 мин. Вид битрейта : Переменный Битрейт : 61 бит/сек Частота кадров : 0,271 кадр/сек Размер потока : 69,9 КиБ (0%) Заголовок : Full, Cool Story Blog (by stirlooo) Язык : Русский Принудительно : Нет Дата кодирования : 2024-04-20 07:44:59 UTC Дата маркировки : 2024-04-20 07:45:00 UTC Количество событий : 1273 Текст #4 Идентификатор : 15 Формат : Timed Text Идентификатор кодека : tx3g Продолжительность : 2 ч. 36 мин. Вид битрейта : Переменный Битрейт : 54 бит/сек Частота кадров : 0,270 кадр/сек Размер потока : 62,1 КиБ (0%) Заголовок : Full, Dark_Alice Язык : Русский Принудительно : Нет Дата кодирования : 2024-04-20 07:44:59 UTC Дата маркировки : 2024-04-20 07:45:00 UTC Количество событий : 1273 Текст #5 Идентификатор : 16 Формат : Timed Text Идентификатор кодека : tx3g Продолжительность : 2 ч. 21 мин. Вид битрейта : Переменный Битрейт : 6 бит/сек Частота кадров : 0,046 кадр/сек Размер потока : 5,74 КиБ (0%) Заголовок : Forced Язык : Английский Принудительно : Нет Дата кодирования : 2024-04-20 07:45:00 UTC Дата маркировки : 2024-04-20 07:45:00 UTC Количество событий : 196 Текст #6 Идентификатор : 17 Формат : Timed Text Идентификатор кодека : tx3g Продолжительность : 2 ч. 36 мин. Вид битрейта : Переменный Битрейт : 33 бит/сек Частота кадров : 0,230 кадр/сек Размер потока : 37,8 КиБ (0%) Заголовок : Full Язык : Английский Принудительно : Нет Дата кодирования : 2024-04-20 07:45:00 UTC Дата маркировки : 2024-04-20 07:45:00 UTC Количество событий : 1081 Текст #7 Идентификатор : 18 Формат : Timed Text Идентификатор кодека : tx3g Продолжительность : 2 ч. 37 мин. Вид битрейта : Переменный Битрейт : 49 бит/сек Частота кадров : 0,366 кадр/сек Размер потока : 56,6 КиБ (0%) Заголовок : SDH Язык : Английский Принудительно : Нет Дата кодирования : 2024-04-20 07:45:00 UTC Дата маркировки : 2024-04-20 07:45:00 UTC Количество событий : 1729 Меню 00:00:00.000 : Chapter 01 00:09:15.221 : Chapter 02 00:21:29.914 : Chapter 03 00:29:31.021 : Chapter 04 00:40:08.908 : Chapter 05 00:50:40.915 : Chapter 06 01:00:34.134 : Chapter 07 01:09:54.527 : Chapter 08 01:19:40.488 : Chapter 09 01:30:39.939 : Chapter 10 01:39:06.071 : Chapter 11 01:49:35.867 : Chapter 12 01:59:40.430 : Chapter 13 02:10:24.616 : Chapter 14 02:18:50.288 : Chapter 15 02:24:19.242 : Chapter 16 02:37:45.799 : Chapter 17
[+] Скриншоты

Всего файлов в раздаче: 1 
Dune.Part.Two.2024.2160p.WEB-DL.DDP.5.1.Atmos.DoVi.P5.mp434.34 GB

Похожие раздачи по запросу - Дюна
2024-05-13 magnet Дюна: Часть вторая / Дюна: Частина друга / Dune: Part Two (2024) BDRip 720p | D, P | UKR 9.86 GB ↑ 0 ↓ 0
2024-05-12 magnet Дюна: Часть вторая / Dune: Part Two (2024) UHD BDRemux 2160p | 4K | HDR10 | Dolby Vision | D, P, A 73.55 GB ↑ 0 ↓ 1
2024-05-12 magnet Дюна: Часть вторая / Дюна: Частина друга / Dune: Part Two (2024) UHD BDRemux 2160p | 4K | HDR | Dolby Vision | D, P | UKR 65.17 GB ↑ 0 ↓ 0
2024-05-10 magnet Дюна: Часть вторая / Dune: Part Two (2024) BDRip 1080p от селезень | D 14.29 GB ↑ 0 ↓ 1
2024-05-07 magnet Дюна: Часть вторая / Dune: Part Two (2024) BDRip-AVC от New-Team | D 2.94 GB ↑ 0 ↓ 0
2024-05-07 magnet Дюна: Часть вторая / Dune: Part Two (2024) BDRip от New-Team | D 2.18 GB ↑ 0 ↓ 0
2024-05-07 magnet Дюна: Часть вторая / Dune: Part Two (2024) BDRip от New-Team | D 1.46 GB ↑ 0 ↓ 0

Кто качает (только для создателя раздачи и модераторов): Локальные пиры отсутствуют

Комментарии


Зарегистрируйтесь чтобы добавить комментарий
Торрент клиент
byTorrent - программа для загрузки торрент-файлов.

Скачать byTorrent.exe (1,5 МБ)

Скачать byTorrent.zip (0,6 МБ)

Поддержи torrent.by
российских рублей
(300 российских рублей это 4$)

Обратная связь rss

End game ©