↑↓torrent.by
Поиск
Логин:  Регистрация
Пароль:

Лето. Нулевые (2023) WEB-DL 1080p от ELEKTRI4KA | KION

download Скачать торрент-файл   magnet Магнитная ссылка Размер: 4.17 GB Добавлен: 2024-04-20 17:00
Пиры будут получены из сети DHT
Последний сидер был замечен 2024-05-05 22:52
«Лето, когда закончилось детство и пришла любовь. Комедийная драма о взрослении, вызывающая ностальгию у миллениалов» Информация о фильме Оригинальное название: Лето. Нулевые Год выхода: 2024 Жанр: драма, мелодрама, комедия Режиссер: Сергей Илютин В ролях: Тимофей Кочнев, Кирилл Доронин, Иван Федоров, Роман Маякин, Анна Котова, Денис Шведов, Анастасия Цыбульская, Ольга Лапшина, Михаил Иванов, Василий Шевцов О фильме: Сколько себя помнит Сашка, он всегда жил в этом маленьком городке Тверской области. Ему знаком здесь каждый дом, каждый поворот и почти все жители. Закончился учебный год, впереди длинные каникулы, которые 15-летний подросток планирует провести как обычно: болтаться с друзьями на речке, часами резаться на приставке в игровом клубе, ездить на рыбалку и ходить на местную дискотеку. Но это лето будет особенным: Сашку ждут по-настоящему взрослые неприятности и такая же настоящая первая любовь. Выпущено: Россия / Киностудия Соль Продолжительность: 01:28:33 Озвучивание: Оригинальное | KION Файл Формат: MKV Качество: WEB-DL 1080p Видео: MPEG-4 AVC, 6144 Kb/s, 1920x1080 Аудио: Russian: AC3, 640 Kb/s (6 ch) Субтитры: Нет Дополнительно: Нет Релиз группы:  | Мы в Telegram:
[+] Инфо-файл:Complete name: Leto.Nulevyie.2023.WEB-DL.1080p.ELEKTRI4KA.mkv Format: Matroska Format version: Version 4 File size: 4.17 GiB Duration: 1 h 28 min Overall bit rate mode: Constant Overall bit rate: 6 745 kb/s Movie name: Leto.Nulevyie.2023.WEB-DL.1080p.ELEKTRI4KA. Encoded date: UTC 2024-04-20 08:58:14 Writing application: mkvmerge v68.0.0 ('The Curtain') 64-bit Writing library: libebml v1.4.2 + libmatroska v1.6.4 Video ID: 1 Format: AVC Format/Info: Advanced Video Codec Format profile: Baseline@L4 Format settings: 2 Ref Frames Format settings, CABAC: No Format settings, RefFrames: 2 frames Codec ID: V_MPEG4/ISO/AVC Duration: 1 h 28 min Bit rate mode: Constant Bit rate: 6 144 kb/s Width: 1 920 pixels Height: 1 080 pixels Display aspect ratio: 16:9 Frame rate mode: Constant Frame rate: 24.000 FPS Color space: YUV Chroma subsampling: 4:2:0 Bit depth: 8 bits Scan type: Progressive Bits/(Pixel*Frame): 0.123 Stream size: 3.77 GiB (90%) Language: English Default: Yes Forced: No Audio ID: 2 Format: AC-3 Format/Info: Audio Coding 3 Commercial name: Dolby Digital Codec ID: A_AC3 Duration: 1 h 28 min Bit rate mode: Constant Bit rate: 640 kb/s Channel(s): 6 channels Channel layout: L R C LFE Ls Rs Sampling rate: 48.0 kHz Frame rate: 31.250 FPS (1536 SPF) Bit depth: 16 bits Compression mode: Lossy Stream size: 405 MiB (9%) Title: Original (KION) Language: Russian Service kind: Complete Main Default: Yes Forced: No
[+] Скриншоты

Всего файлов в раздаче: 1 
Leto.Nulevyie.2023.WEB-DL.1080p.ELEKTRI4KA.mkv4.17 GB

Похожие раздачи по запросу - Лето
2024-05-08 magnet Между нами лето (2024) WEB-DLRip от MegaPeer 1.46 GB ↑ 0 ↓ 0
2024-05-08 magnet Между нами лето (2024) WEB-DL 720p 2.43 GB ↑ 1 ↓ 0
2024-05-08 magnet Между нами лето (2024) WEB-DL 1080p 4.34 GB ↑ 0 ↓ 0
2024-05-06 magnet Мое итальянское лето / Gli anni belli (2022) WEB-DLRip-AVC от DoMiNo & селезень | P 1.46 GB ↑ 0 ↓ 0
2024-04-24 magnet Лето. Нулевые (2023) WEB-DLRip от ExKinoRay | KION 741.31 MB ↑ 0 ↓ 0
2024-04-21 magnet Лето. Нулевые (2024) WEB-DLRip-AVC от New-Team 1.46 GB ↑ 0 ↓ 0
2024-04-20 magnet Лето. Нулевые (2023) WEB-DLRip от ELEKTRI4KA | KION 1.46 GB ↑ 0 ↓ 0

Комментарии


Зарегистрируйтесь чтобы добавить комментарий
Торрент клиент
byTorrent - программа для загрузки торрент-файлов.

Скачать byTorrent.exe (1,5 МБ)

Скачать byTorrent.zip (0,6 МБ)

Поддержи torrent.by
российских рублей
(300 российских рублей это 4$)

Обратная связь rss

End game ©