↑↓torrent.by
Поиск
Логин:  Регистрация
Пароль:

Асфальтовые джунгли / Asphalt City (2023) WEB-DLRip от ExKinoRay | L

download Скачать торрент-файл   magnet Магнитная ссылка Размер: 752.79 MB Добавлен: 2024-04-21 05:00
Пиры будут получены из сети DHT
Последний сидер был замечен вчера в 22:59
Информация о фильме Название: Асфальтовые джунгли Оригинальное название: Asphalt City Год выхода: 2023 Жанр: триллер, драма Режиссер: Жан-Стефан Совер В ролях: Тай Шеридан, Шон Пенн, Гбенга Акиннагбе, Майкл Питт, Кэтрин Уотерстон, Майк Тайсон, Ракель Нив, Кали Рейс, Рамон Алеман, Джаган Бэдуэлл О фильме: Молодой фельдшер первый год работает на «скорой» в Нью-Йорке.... Страна: США Студия: Sculptor Media, AZA Films, Force Majeure Продолжительность: 02:05:04 Перевод: Любительский многоголосый - Soundmasters | 18 + Файл Кодек: XviD Качество: WEB-DLRip Видео: 688x288 (2.39:1), 23.976 fps, XviD build 67 ~701 kbps avg, 0.15 bit/pixel Звук: 48 kHz, MP3, 2 ch, 128 kbps avg Субтитры: Отсутствуют
[+] MediaInfoGeneral Complete name : D:Асфальтовые джунгли(Asphalt.City)2023.WEB-DLRip.by.ExKinoRay & Shkiper.avi Format : AVI Format/Info : Audio Video Interleave Format settings : BitmapInfoHeader / WaveFormatEx File size : 753 MiB Duration : 2 h 5 min Overall bit rate : 842 kb/s Frame rate : 23.976 FPS Movie name : Asphalt.City.2023.WEB-DLRip.by.ExKinoRay & Shkiper Writing application : Lavf58.29.100 Video ID : 0 Format : MPEG-4 Visual Format profile : Advanced Simple@L5 Format settings : BVOP1 / Custom Matrix Format settings, BVOP : 1 Format settings, QPel : No Format settings, GMC : No warppoints Format settings, Matrix : Custom Codec ID : XVID Codec ID/Hint : XviD Duration : 2 h 5 min Bit rate : 701 kb/s Width : 688 pixels Height : 288 pixels Display aspect ratio : 2.40:1 Frame rate : 23.976 (24000/1001) FPS Color space : YUV Chroma subsampling : 4:2:0 Bit depth : 8 bits Scan type : Progressive Compression mode : Lossy Bits/(Pixel*Frame) : 0.148 Stream size : 627 MiB (83%) Writing library : XviD 67 Audio ID : 1 Format : MPEG Audio Format version : Version 1 Format profile : Layer 3 Format settings : Joint stereo / MS Stereo Codec ID : 55 Codec ID/Hint : MP3 Duration : 2 h 5 min Bit rate mode : Constant Bit rate : 128 kb/s Channel(s) : 2 channels Sampling rate : 48.0 kHz Compression mode : Lossy Stream size : 115 MiB (15%) Alignment : Aligned on interleaves Interleave, duration : 24 ms (0.58 video frame) Title : Soundmaster Writing library : LAMEÚ¨–e]é$…ʋW*J
[+] Скриншоты
Релиз от: Рип изготовил:

Всего файлов в раздаче: 1 
Асфальтовые джунгли(Asphalt.City)2023.WEB-DLRip.by.ExKinoRay & Shkiper.avi752.79 MB

Похожие раздачи по запросу - Асфальтовые
2024-05-17 magnet Асфальтовые джунгли / Asphalt City (2023) WEB-DL 1080p от New-Team | D, L | Soundmasters 9.51 GB ↑ 0 ↓ 0
2024-04-21 magnet Асфальтовые джунгли / Asphalt City (2023) WEB-DL 720p от селезень | L | Soundmasters 5.22 GB ↑ 0 ↓ 0
2024-04-20 magnet Асфальтовые джунгли / Asphalt City (2023) WEB-DLRip-AVC от New-Team | L | Soundmaster 2.18 GB ↑ 0 ↓ 0
2024-04-20 magnet Асфальтовые джунгли / Asphalt City (2023) WEB-DLRip от New-Team | L | Soundmaster 1.46 GB ↑ 0 ↓ 0
2024-04-20 magnet Асфальтовые джунгли / Asphalt City (2023) WEB-DL 1080p от New-Team | L | Soundmaster 9.34 GB ↑ 0 ↓ 0

Комментарии


Зарегистрируйтесь чтобы добавить комментарий
Торрент клиент
byTorrent - программа для загрузки торрент-файлов.

Скачать byTorrent.exe (1,5 МБ)

Скачать byTorrent.zip (0,6 МБ)

Поддержи torrent.by
российских рублей
(300 российских рублей это 4$)

Обратная связь rss

End game ©