↑↓torrent.by
Поиск
Логин:  Регистрация
Пароль:

Каменщик / The Bricklayer (2023) BDRip 720p от DoMiNo & селезень | D

download Скачать торрент-файл   magnet Магнитная ссылка Размер: 5.52 GB Раздают: 0 Качают: 1 Добавлен: 2024-04-21 05:00
Пиры будут получены из сети DHT
Последний сидер был замечен 2024-05-04 09:24
Информация о фильме Название: Каменщик Оригинальное название: The Bricklayer Год выхода: 2023 Жанр: боевик, триллер Режиссер: Ренни Харлин В ролях: Аарон Экхарт, Нина Добрев, Клифтон Коллинз мл., Тим Блейк Нельсон, Ильфенеш Хадера, Оливер Тревена, Акис Сакеллариу, Ори Феффер, Джон Т. Вудс, Константин Адаев О фильме: Стив Уэйл по прозвищу Каменщик - один из лучших агентов ЦРУ, оставивший службу в прошлом. Но когда его старый знакомый организовывает серию убийств с целью подставить Управление, властям приходится вернуть Стива в игру. Теперь вместе с заносчивой напарницей Кейт они должны остановить опаснейшего противника, пока под угрозой не оказался весь мировой порядок. Страна: США, Болгария, Греция Студия: Eclectic Pictures Inc., Ekome, G-BASE, Millennium Films, Millennium Media, Nu Boyana Film Studios Продолжительность: 01:49:58 Перевод: Дублированный | Мосфильм-Мастер Субтитры: Русские (full), английские (Full, SDH) Файл Формат: Matroska Качество: BDRip 720p | Видео: 1280x536 at 23.976 fps, x264@L4.1, ~5221 kbps Аудио 2: AC3, 6 ch, ~448 kbps - | Русский | Аудио 2: DTS, 6 ch, ~1509 kbps - | Английский | Формат субтитров: softsub (SRT) ***Рип от: -=DoMiNo=-
[+] M/IGeneral Unique ID : 91368628649868487652079799532237523932 (0x44BCF531B04854604586620C55528BDC) Complete name : S:The.Bricklayer.2023.DUB.BDRip.720p.x264.seleZen.mkv Format : Matroska Format version : Version 4 File size : 5.52 GiB Duration : 1 h 49 min Overall bit rate : 7 181 kb/s Frame rate : 23.976 FPS Movie name : The.Bricklayer.2023.DUB.BDRip.720p.x264.seleZen Encoded date : 2024-04-20 10:17:49 UTC Writing application : mkvmerge v83.0 ('Circle Of Friends') 64-bit Writing library : libebml v1.4.5 + libmatroska v1.7.1 Cover : Yes Attachments : cover.jpg / small_cover.jpg Video ID : 1 Format : AVC Format/Info : Advanced Video Codec Format profile : High@L4.1 Format settings : CABAC / 12 Ref Frames Format settings, CABAC : Yes Format settings, Reference : 12 frames Codec ID : V_MPEG4/ISO/AVC Duration : 1 h 49 min Bit rate : 5 221 kb/s Width : 1 280 pixels Height : 536 pixels Display aspect ratio : 2.39:1 Frame rate mode : Constant Frame rate : 23.976 (24000/1001) FPS Color space : YUV Chroma subsampling : 4:2:0 Bit depth : 8 bits Scan type : Progressive Bits/(Pixel*Frame) : 0.317 Stream size : 4.01 GiB (73%) Title : -=DoMiNo=- Writing library : x264 core 164 r3190 -DoMiNo Encoding settings : cabac=1 / ref=12 / deblock=1:-2:-2 / analyse=0x3:0x133 / me=umh / subme=10 / psy=1 / psy_rd=1.00:0.00 / mixed_ref=1 / me_range=32 / chroma_me=1 / trellis=2 / 8x8dct=1 / cqm=0 / deadzone=21,11 / fast_pskip=0 / chroma_qp_offset=-2 / threads=17 / lookahead_threads=4 / sliced_threads=0 / nr=0 / decimate=0 / interlaced=0 / bluray_compat=0 / constrained_intra=0 / bframes=12 / b_pyramid=2 / b_adapt=2 / b_bias=0 / direct=1 / weightb=1 / open_gop=0 / weightp=2 / keyint=240 / keyint_min=23 / scenecut=40 / intra_refresh=0 / rc_lookahead=60 / rc=crf / mbtree=0 / crf=16.8 / qcomp=0.60 / qpmin=0 / qpmax=69 / qpstep=4 / vbv_maxrate=50000 / vbv_bufsize=62500 / crf_max=0.0 / nal_hrd=none / filler=0 / ip_ratio=1.40 / pb_ratio=1.30 / aq=3:0.80 Language : English Default : Yes Forced : No Color range : Limited Color primaries : BT.709 Transfer characteristics : BT.709 Matrix coefficients : BT.709 Audio #1 ID : 2 Format : AC-3 Format/Info : Audio Coding 3 Commercial name : Dolby Digital Codec ID : A_AC3 Duration : 1 h 49 min Bit rate mode : Constant Bit rate : 448 kb/s Channel(s) : 6 channels Channel layout : L R C LFE Ls Rs Sampling rate : 48.0 kHz Frame rate : 31.250 FPS (1536 SPF) Compression mode : Lossy Stream size : 352 MiB (6%) Title : Dub -Мосфильм-Мастер Language : Russian Service kind : Complete Main Default : Yes Forced : No AC3_metadata cmixlev : -4.5 dB surmixlev : -6 dB Audio #2 ID : 3 Format : DTS Format/Info : Digital Theater Systems Codec ID : A_DTS Duration : 1 h 49 min Bit rate mode : Constant Bit rate : 1 509 kb/s Channel(s) : 6 channels Channel layout : C L R Ls Rs LFE Sampling rate : 48.0 kHz Frame rate : 93.750 FPS (512 SPF) Bit depth : 16 bits Compression mode : Lossy Stream size : 1.16 GiB (21%) Title : Original Language : English Default : No Forced : No Text #1 ID : 4 Format : UTF-8 Codec ID : S_TEXT/UTF8 Codec ID/Info : UTF-8 Plain Text Duration : 1 h 41 min Bit rate : 69 b/s Frame rate : 0.185 FPS Count of elements : 1130 Stream size : 51.5 KiB (0%) Title : Full Language : Russian Default : No Forced : No Text #2 ID : 5 Format : UTF-8 Codec ID : S_TEXT/UTF8 Codec ID/Info : UTF-8 Plain Text Duration : 1 h 39 min Bit rate : 43 b/s Frame rate : 0.180 FPS Count of elements : 1068 Stream size : 31.2 KiB (0%) Title : Full Language : English Default : No Forced : No Text #3 ID : 6 Format : UTF-8 Codec ID : S_TEXT/UTF8 Codec ID/Info : UTF-8 Plain Text Duration : 1 h 39 min Bit rate : 45 b/s Frame rate : 0.195 FPS Count of elements : 1165 Stream size : 33.2 KiB (0%) Title : SDH Language : English Default : No Forced : No Menu 00:00:00.000 : en:Chapter 01 00:09:14.763 : en:Chapter 02 00:18:15.845 : en:Chapter 03 00:27:17.761 : en:Chapter 04 00:36:51.543 : en:Chapter 05 00:45:10.499 : en:Chapter 06 00:52:56.131 : en:Chapter 07 01:02:28.787 : en:Chapter 08 01:12:36.018 : en:Chapter 09 01:21:06.320 : en:Chapter 10 01:30:35.597 : en:Chapter 11 01:40:19.680 : en:Chapter 12 01:49:58.592 : en:Chapter 13
Релиз: Присоединяйся к: Кликай на баннеры.

Всего файлов в раздаче: 1 
The.Bricklayer.2023.DUB.BDRip.720p.x264.seleZen.mkv5.52 GB

Похожие раздачи по запросу - Каменщик
2024-04-22 magnet Каменщик / The Bricklayer (2023) BDRemux 1080p | D 29.43 GB ↑ 0 ↓ 0
2024-04-21 magnet Каменщик / The Bricklayer (2023) BDRip-AVC от DoMiNo & селезень | D 1.46 GB ↑ 0 ↓ 0
2024-04-20 magnet Каменщик / The Bricklayer (2023) BDRip от New-Team | D 1.46 GB ↑ 0 ↓ 0
2024-04-20 magnet Каменщик / The Bricklayer (2023) BDRip-AVC от New-Team | D 2.18 GB ↑ 0 ↓ 0

Кто качает (только для создателя раздачи и модераторов):
ПользовательIP:портОтдалПринялОстатокСидируетТоррент клиентОбновился
1 Аноним 233.86.87.213:41035 0.00 B 421.99 MB 5.44 GB нет -qB4390- 07:54 2024-05-19

Комментарии


Зарегистрируйтесь чтобы добавить комментарий
Торрент клиент
byTorrent - программа для загрузки торрент-файлов.

Скачать byTorrent.exe (1,5 МБ)

Скачать byTorrent.zip (0,6 МБ)

Поддержи torrent.by
российских рублей
(300 российских рублей это 4$)

Обратная связь rss

End game ©