↑↓torrent.by
Поиск
Логин:  Регистрация
Пароль:

Дюна: Часть вторая / Dune: Part Two (2024) UHD WEB-DL-HEVC 2160p | 4K | HDR | Dolby Vision Profile 8 | D, P, A

download Скачать торрент-файл   magnet Магнитная ссылка Размер: 34.82 GB Раздают: 2 Качают: 11 Добавлен: 2024-04-21 05:00
Пиры будут получены из сети DHT
Последний сидер был замечен сегодня в 09:38
Название: Дюна: Часть вторая Оригинальное название: Dune: Part Two Год выхода: 2024 Производство: США, Канада / Legendary Entertainment, Warner Bros. Entertainment, Villeneuve Films Жанр: Фантастика, боевик, драма, приключения Перевод: Профессиональный дублированный, неофициальный дублированный, профессиональный многоголосый, авторский одноголосый Продолжительность: 02:45:48 Режиссёр: Дени Вильнёв В ролях: Тимоти Шаламе, Зендея, Ребекка Фергюсон, Хавьер Бардем, Джош Бролин, Остин Батлер, Флоренс Пью, Дэйв Батиста, Кристофер Уокен, Леа Сейду Описание: Потеряв всё, Пол Атрейдес ищет поддержки у населения Арракиса - фрименов. Ему нужно познать их обычаи и понять, как выживать на планете-пустыне. Только так он может положить конец правлению Харконненов и преобразить Дюну. Но в своих видениях Пол видит лишь страшное будущее: за победой над Великим Домом барона Владимира грядёт Священная война во имя самого Атрейдеса, которая затронет всю вселенную. Пол хочет предотвратить неизбежное, намереваясь закончить духовное преображение в пророка Муад’диба из местных легенд. Формат: MKV Качество: WEB-DL 2160p Видео: MPEG-H HEVC / 24.3 Mbps / 3840x1606 / 23.976 fps Аудио 01: E-AC3, 6ch, 384 kbps - Русский дублированный (Bravo Records / Movie Dubbing) Аудио 02: AC-3, 6ch, 640 kbps - Русский дублированный, неофициальный (Red Head Sound) Аудио 03: AC-3, 2ch, 192 kbps - Русский дублированный, неофициальный (Jaskier) Аудио 04: AAC, 2ch, 192 kbps - Русский дублированный, неофициальный (HDRezka Studio) Аудио 05: E-AC3, 6ch, 768 kbps - Русский MVO (Lost Film) Аудио 06: AC-3, 6ch, 448 kbps - Русский MVO (TV Shows) Аудио 07: AC-3, 2ch, 256 kbps - Русский MVO (Jaskier) Аудио 08: E-AC3, 6ch, 768 kbps - Русский AVO (Юрий Сербин) Аудио 09: E-AC3, 6ch, 768 kbps - Русский AVO (Михаил Яроцкий) Аудио 10: AC-3, 6ch, 384 kbps - Украинский дублированный (Postmodern) Аудио 11: E-AC3 JOC, 6ch, 768 Kbps - Английский Субтитры: Русские (Forced, Full), Английские (Full, Forced, SDH) и другие
[+] MediainfoUnique ID : 202234602957546792052956997432062752505 (0x9824F7BF4C31E5D10DBF51DDFE5FB6F9) Complete name : Dune.Part.Two.2024.2160p.WEB-DL.DV.HDR.H.265.DDP5.1.Atmos.Rus.Dub.5.1.Gavrilla.mkv Format : Matroska Format version : Version 4 File size : 34.8 GiB Duration : 2 h 45 min Overall bit rate : 30.1 Mb/s Frame rate : 23.976 FPS Movie name : Дюна: Часть вторая / Dune: Part Two (2024) 2160p DV HDR Encoded date : 2024-04-20 13:16:23 UTC Writing application : mkvmerge v75.0.0 ('Goliath') 64-bit Writing library : libebml v1.4.4 + libmatroska v1.7.1 Cover : Yes Attachments : cover.jpg Video ID : 1 Format : HEVC Format/Info : High Efficiency Video Coding Format profile : Main 10@L5@High HDR format : Dolby Vision, Version 1.0, dvhe.08.06, BL+RPU, HDR10 compatible / SMPTE ST 2094 App 4, Version 1, HDR10+ Profile B compatible Codec ID : V_MPEGH/ISO/HEVC Duration : 2 h 45 min Bit rate : 24.5 Mb/s Width : 3 840 pixels Height : 1 606 pixels Display aspect ratio : 2.40:1 Original display aspect ratio : 2.40:1 Frame rate mode : Constant Frame rate : 23.976 (24000/1001) FPS Color space : YUV Chroma subsampling : 4:2:0 (Type 2) Bit depth : 10 bits Bits/(Pixel*Frame) : 0.166 Stream size : 28.4 GiB (81%) Title : Dune.Part.Two.2024.2160p.WEB-DL.DV.HDR.H.265 Language : English Default : Yes Forced : Yes Color range : Limited Color primaries : BT.2020 Transfer characteristics : PQ Matrix coefficients : BT.2020 non-constant Mastering display color primaries : BT.2020 Mastering display luminance : min: 0.0050 cd/m2, max: 1000 cd/m2 Maximum Content Light Level : 880 cd/m2 Maximum Frame-Average Light Level : 475 cd/m2 Audio #1 ID : 2 Format : E-AC-3 Format/Info : Enhanced AC-3 Commercial name : Dolby Digital Plus Codec ID : A_EAC3 Duration : 2 h 45 min Bit rate mode : Constant Bit rate : 384 kb/s Channel(s) : 6 channels Channel layout : L R C LFE Ls Rs Sampling rate : 48.0 kHz Frame rate : 31.250 FPS (1536 SPF) Compression mode : Lossy Stream size : 455 MiB (1%) Title : Дубляж (Bravo Records Georgia / Movie Dubbing) Language : Russian Service kind : Complete Main Default : Yes Forced : No Audio #2 ID : 3 Format : AC-3 Format/Info : Audio Coding 3 Commercial name : Dolby Digital Codec ID : A_AC3 Duration : 2 h 45 min Bit rate mode : Constant Bit rate : 640 kb/s Channel(s) : 6 channels Channel layout : L R C LFE Ls Rs Sampling rate : 48.0 kHz Frame rate : 31.250 FPS (1536 SPF) Compression mode : Lossy Stream size : 759 MiB (2%) Title : Дубляж (Red Head Sound) Language : Russian Service kind : Complete Main Default : No Forced : No Audio #3 ID : 4 Format : AC-3 Format/Info : Audio Coding 3 Commercial name : Dolby Digital Codec ID : A_AC3 Duration : 2 h 45 min Bit rate mode : Constant Bit rate : 192 kb/s Channel(s) : 2 channels Channel layout : L R Sampling rate : 48.0 kHz Frame rate : 31.250 FPS (1536 SPF) Compression mode : Lossy Stream size : 228 MiB (1%) Title : Дубляж (Jaskier) Language : Russian Service kind : Complete Main Default : No Forced : No Audio #4 ID : 5 Format : AAC LC Format/Info : Advanced Audio Codec Low Complexity Codec ID : A_AAC-2 Duration : 2 h 45 min Bit rate : 192 kb/s Channel(s) : 2 channels Channel layout : L R Sampling rate : 48.0 kHz Frame rate : 46.875 FPS (1024 SPF) Compression mode : Lossy Delay relative to video : 9 ms Stream size : 225 MiB (1%) Title : Дубляж (HDRezka Studio) Language : Russian Default : No Forced : No Audio #5 ID : 6 Format : E-AC-3 Format/Info : Enhanced AC-3 Commercial name : Dolby Digital Plus Codec ID : A_EAC3 Duration : 2 h 45 min Bit rate mode : Constant Bit rate : 768 kb/s Channel(s) : 6 channels Channel layout : L R C LFE Ls Rs Sampling rate : 48.0 kHz Frame rate : 31.250 FPS (1536 SPF) Compression mode : Lossy Stream size : 911 MiB (3%) Title : MVO (Lost Film) Language : Russian Service kind : Complete Main Default : No Forced : No Audio #6 ID : 7 Format : AC-3 Format/Info : Audio Coding 3 Commercial name : Dolby Digital Codec ID : A_AC3 Duration : 2 h 45 min Bit rate mode : Constant Bit rate : 448 kb/s Channel(s) : 6 channels Channel layout : L R C LFE Ls Rs Sampling rate : 48.0 kHz Frame rate : 31.250 FPS (1536 SPF) Compression mode : Lossy Stream size : 531 MiB (1%) Title : MVO (TVShows) Language : Russian Service kind : Complete Main Default : No Forced : No Audio #7 ID : 8 Format : AC-3 Format/Info : Audio Coding 3 Commercial name : Dolby Digital Codec ID : A_AC3 Duration : 2 h 45 min Bit rate mode : Constant Bit rate : 256 kb/s Channel(s) : 2 channels Channel layout : L R Sampling rate : 48.0 kHz Frame rate : 31.250 FPS (1536 SPF) Compression mode : Lossy Stream size : 304 MiB (1%) Title : MVO (Jaskier) Language : Russian Service kind : Complete Main Default : No Forced : No Audio #8 ID : 9 Format : E-AC-3 Format/Info : Enhanced AC-3 Commercial name : Dolby Digital Plus Codec ID : A_EAC3 Duration : 2 h 45 min Bit rate mode : Constant Bit rate : 768 kb/s Channel(s) : 6 channels Channel layout : L R C LFE Ls Rs Sampling rate : 48.0 kHz Frame rate : 31.250 FPS (1536 SPF) Compression mode : Lossy Stream size : 911 MiB (3%) Title : AVO (Юрий Сербин) Language : Russian Service kind : Complete Main Default : No Forced : No Audio #9 ID : 10 Format : E-AC-3 Format/Info : Enhanced AC-3 Commercial name : Dolby Digital Plus Codec ID : A_EAC3 Duration : 2 h 45 min Bit rate mode : Constant Bit rate : 768 kb/s Channel(s) : 6 channels Channel layout : L R C LFE Ls Rs Sampling rate : 48.0 kHz Frame rate : 31.250 FPS (1536 SPF) Compression mode : Lossy Stream size : 911 MiB (3%) Title : VO (Михаил Яроцкий) Language : Russian Service kind : Complete Main Default : No Forced : No Audio #10 ID : 11 Format : AC-3 Format/Info : Audio Coding 3 Commercial name : Dolby Digital Codec ID : A_AC3 Duration : 2 h 45 min Bit rate mode : Constant Bit rate : 384 kb/s Channel(s) : 6 channels Channel layout : L R C LFE Ls Rs Sampling rate : 48.0 kHz Frame rate : 31.250 FPS (1536 SPF) Compression mode : Lossy Stream size : 455 MiB (1%) Title : Postmodern Language : Ukrainian Service kind : Complete Main Default : No Forced : No Audio #11 ID : 12 Format : E-AC-3 JOC Format/Info : Enhanced AC-3 with Joint Object Coding Commercial name : Dolby Digital Plus with Dolby Atmos Codec ID : A_EAC3 Duration : 2 h 45 min Bit rate mode : Constant Bit rate : 768 kb/s Channel(s) : 6 channels Channel layout : L R C LFE Ls Rs Sampling rate : 48.0 kHz Frame rate : 31.250 FPS (1536 SPF) Compression mode : Lossy Stream size : 911 MiB (3%) Title : Original English Atmos Language : English Service kind : Complete Main Default : No Forced : No Complexity index : 16 Number of dynamic objects : 15 Bed channel count : 1 channel Bed channel configuration : LFE Text #1 ID : 13 Format : UTF-8 Codec ID : S_TEXT/UTF8 Codec ID/Info : UTF-8 Plain Text Duration : 2 h 39 min Bit rate : 7 b/s Frame rate : 0.022 FPS Count of elements : 214 Stream size : 8.53 KiB (0%) Title : Форсированные Language : Russian Default : Yes Forced : Yes Text #2 ID : 14 Format : UTF-8 Codec ID : S_TEXT/UTF8 Codec ID/Info : UTF-8 Plain Text Duration : 2 h 45 min Bit rate : 46 b/s Frame rate : 0.134 FPS Count of elements : 1331 Stream size : 56.4 KiB (0%) Title : Полные Language : Russian Default : No Forced : No Text #3 ID : 15 Format : UTF-8 Codec ID : S_TEXT/UTF8 Codec ID/Info : UTF-8 Plain Text Duration : 2 h 36 min Bit rate : 52 b/s Frame rate : 0.135 FPS Count of elements : 1273 Stream size : 60.5 KiB (0%) Title : Полные (Cool Story Blog / by stirlooo) Language : Russian Default : No Forced : No Text #4 ID : 16 Format : UTF-8 Codec ID : S_TEXT/UTF8 Codec ID/Info : UTF-8 Plain Text Duration : 2 h 36 min Bit rate : 48 b/s Frame rate : 0.135 FPS Count of elements : 1273 Stream size : 55.9 KiB (0%) Title : Полные (Dark_Alice) Language : Russian Default : No Forced : No Text #5 ID : 17 Format : UTF-8 Codec ID : S_TEXT/UTF8 Codec ID/Info : UTF-8 Plain Text Duration : 2 h 21 min Bit rate : 4 b/s Frame rate : 0.023 FPS Count of elements : 196 Stream size : 5.01 KiB (0%) Title : Forced Language : English Default : No Forced : No Text #6 ID : 18 Format : UTF-8 Codec ID : S_TEXT/UTF8 Codec ID/Info : UTF-8 Plain Text Duration : 2 h 36 min Bit rate : 32 b/s Frame rate : 0.137 FPS Count of elements : 1285 Stream size : 36.8 KiB (0%) Title : Full (with Freemen) Language : English Default : No Forced : No Text #7 ID : 19 Format : UTF-8 Codec ID : S_TEXT/UTF8 Codec ID/Info : UTF-8 Plain Text Duration : 2 h 35 min Bit rate : 27 b/s Frame rate : 0.116 FPS Count of elements : 1081 Stream size : 31.6 KiB (0%) Title : Full Language : English Default : No Forced : No Text #8 ID : 20 Format : UTF-8 Codec ID : S_TEXT/UTF8 Codec ID/Info : UTF-8 Plain Text Duration : 2 h 37 min Bit rate : 41 b/s Frame rate : 0.183 FPS Count of elements : 1729 Stream size : 48.1 KiB (0%) Title : SDH Language : English Default : No Forced : No Text #9 ID : 21 Format : UTF-8 Codec ID : S_TEXT/UTF8 Codec ID/Info : UTF-8 Plain Text Duration : 2 h 39 min Bit rate : 7 b/s Frame rate : 0.022 FPS Count of elements : 214 Stream size : 9.11 KiB (0%) Title : Forced Language : Ukrainian Default : No Forced : No Text #10 ID : 22 Format : UTF-8 Codec ID : S_TEXT/UTF8 Codec ID/Info : UTF-8 Plain Text Duration : 2 h 45 min Bit rate : 47 b/s Frame rate : 0.134 FPS Count of elements : 1334 Stream size : 57.7 KiB (0%) Title : Full (Rakuten TV) Language : Ukrainian Default : No Forced : No Text #11 ID : 23 Format : UTF-8 Codec ID : S_TEXT/UTF8 Codec ID/Info : UTF-8 Plain Text Duration : 2 h 45 min Bit rate : 29 b/s Frame rate : 0.136 FPS Count of elements : 1353 Stream size : 36.2 KiB (0%) Language : French Default : No Forced : No Text #12 ID : 24 Format : UTF-8 Codec ID : S_TEXT/UTF8 Codec ID/Info : UTF-8 Plain Text Duration : 2 h 45 min Bit rate : 33 b/s Frame rate : 0.119 FPS Count of elements : 1186 Stream size : 40.7 KiB (0%) Language : German (DE) Default : No Forced : No Text #13 ID : 25 Format : UTF-8 Codec ID : S_TEXT/UTF8 Codec ID/Info : UTF-8 Plain Text Duration : 2 h 45 min Bit rate : 30 b/s Frame rate : 0.134 FPS Count of elements : 1327 Stream size : 37.1 KiB (0%) Title : Latin American Language : Spanish (Latin America) Default : No Forced : No Text #14 ID : 26 Format : UTF-8 Codec ID : S_TEXT/UTF8 Codec ID/Info : UTF-8 Plain Text Duration : 2 h 45 min Bit rate : 42 b/s Frame rate : 0.132 FPS Count of elements : 1312 Stream size : 51.8 KiB (0%) Language : Hebrew Default : No Forced : No Text #15 ID : 27 Format : UTF-8 Codec ID : S_TEXT/UTF8 Codec ID/Info : UTF-8 Plain Text Duration : 2 h 45 min Bit rate : 27 b/s Frame rate : 0.108 FPS Count of elements : 1073 Stream size : 33.9 KiB (0%) Language : Hungarian Default : No Forced : No Text #16 ID : 28 Format : UTF-8 Codec ID : S_TEXT/UTF8 Codec ID/Info : UTF-8 Plain Text Duration : 2 h 45 min Bit rate : 44 b/s Frame rate : 0.195 FPS Count of elements : 1936 Stream size : 54.0 KiB (0%) Language : Italian Default : No Forced : No Text #17 ID : 29 Format : UTF-8 Codec ID : S_TEXT/UTF8 Codec ID/Info : UTF-8 Plain Text Duration : 2 h 45 min Bit rate : 29 b/s Frame rate : 0.133 FPS Count of elements : 1326 Stream size : 35.5 KiB (0%) Language : Lithuanian Default : No Forced : No Text #18 ID : 30 Format : UTF-8 Codec ID : S_TEXT/UTF8 Codec ID/Info : UTF-8 Plain Text Duration : 2 h 45 min Bit rate : 30 b/s Frame rate : 0.134 FPS Count of elements : 1328 Stream size : 37.4 KiB (0%) Language : Portuguese Default : No Forced : No Text #19 ID : 31 Format : UTF-8 Codec ID : S_TEXT/UTF8 Codec ID/Info : UTF-8 Plain Text Duration : 2 h 45 min Bit rate : 29 b/s Frame rate : 0.114 FPS Count of elements : 1133 Stream size : 35.7 KiB (0%) Language : Norwegian Default : No Forced : No Menu 00:00:00.000 : en:Chapter 01 00:05:50.000 : en:Chapter 02 00:11:40.000 : en:Chapter 03 00:17:30.000 : en:Chapter 04 00:23:20.000 : en:Chapter 05 00:29:10.000 : en:Chapter 06 00:35:00.000 : en:Chapter 07 00:40:50.000 : en:Chapter 08 00:46:40.000 : en:Chapter 09 00:52:30.000 : en:Chapter 10 00:58:20.000 : en:Chapter 11 01:04:10.000 : en:Chapter 12 01:10:00.000 : en:Chapter 13 01:15:50.000 : en:Chapter 14 01:21:40.000 : en:Chapter 15 01:27:30.000 : en:Chapter 16 01:33:20.000 : en:Chapter 17 01:39:10.000 : en:Chapter 18 01:45:00.000 : en:Chapter 19 01:50:50.000 : en:Chapter 20 01:56:40.000 : en:Chapter 21 02:02:30.000 : en:Chapter 22 02:08:20.000 : en:Chapter 23 02:14:10.000 : en:Chapter 24 02:20:00.000 : en:Chapter 25 02:25:50.000 : en:Chapter 26 02:31:40.000 : en:Chapter 27 02:37:30.000 : en:Chapter 28 02:43:20.000 : en:Chapter 29
[+] Скриншоты

Всего файлов в раздаче: 1 
Dune.Part.Two.2024.2160p.WEB-DL.DV.HDR.H.265.DDP5.1.Atmos.Rus.Dub.5.1.Gavrilla.mkv34.82 GB

Похожие раздачи по запросу - Дюна
2024-05-13 magnet Дюна: Часть вторая / Дюна: Частина друга / Dune: Part Two (2024) BDRip 720p | D, P | UKR 9.86 GB ↑ 0 ↓ 0
2024-05-12 magnet Дюна: Часть вторая / Dune: Part Two (2024) UHD BDRemux 2160p | 4K | HDR10 | Dolby Vision | D, P, A 73.55 GB ↑ 0 ↓ 1
2024-05-12 magnet Дюна: Часть вторая / Дюна: Частина друга / Dune: Part Two (2024) UHD BDRemux 2160p | 4K | HDR | Dolby Vision | D, P | UKR 65.17 GB ↑ 0 ↓ 0
2024-05-10 magnet Дюна: Часть вторая / Dune: Part Two (2024) BDRip 1080p от селезень | D 14.29 GB ↑ 0 ↓ 0
2024-05-07 magnet Дюна: Часть вторая / Dune: Part Two (2024) BDRip-AVC от New-Team | D 2.94 GB ↑ 0 ↓ 1
2024-05-07 magnet Дюна: Часть вторая / Dune: Part Two (2024) BDRip от New-Team | D 2.18 GB ↑ 1 ↓ 0
2024-05-07 magnet Дюна: Часть вторая / Dune: Part Two (2024) BDRip от New-Team | D 1.46 GB ↑ 0 ↓ 0

Комментарии


Зарегистрируйтесь чтобы добавить комментарий
Торрент клиент
byTorrent - программа для загрузки торрент-файлов.

Скачать byTorrent.exe (1,5 МБ)

Скачать byTorrent.zip (0,6 МБ)

Поддержи torrent.by
российских рублей
(300 российских рублей это 4$)

Обратная связь rss

End game ©