↑↓torrent.by
Поиск
Логин:  Регистрация
Пароль:

Асфальтовые джунгли / Asphalt City (2023) WEB-DL 720p от селезень | L | Soundmasters

download Скачать торрент-файл   magnet Магнитная ссылка Размер: 5.22 GB Добавлен: 2024-04-21 05:00
Пиры будут получены из сети DHT
Последний сидер был замечен вчера в 22:10
Информация о фильме Название: Асфальтовые джунгли Оригинальное название: Asphalt City Год выпуска: 2023 Жанр: триллер, драма Режиссер: Жан-Стефан Совер / Jean-Stéphane Sauvaire В ролях: Тай Шеридан, Шон Пенн, Гбенга Акиннагбе, Майкл Питт, Кэтрин Уотерстон, Майк Тайсон, Ракель Нив, Кали Рейс, Рамон Алеман, Джаган Бэдуэлл О фильме: Фильм рассказывает о молодом сотруднике бригады скорой помощи Олли Кроссе, который начинает работать на улицах Нью-Йорка вместе с опытным медиком Джином Ратковски, привыкшим к ужасам большого города, наполненного бездомными, убийствами и наркотиками. Работая в ночную смену и сталкиваясь с маргиналами, они каждый раз вынуждены рисковать своими жизнями, чтобы спасти чужие. Выпущено: США, Sculptor Media, AZA Films, Force Majeure Продолжительность: 02:05:04 Перевод: Любительский (многоголосый, закадровый) | Soundmasters 18 + Субтитры: Английские Файл Формат: Matroska Качество: WEB-DL 720p | AMZN Видео: 1280@1278x544 at 23.976 fps, MPEG-4 AVC, ~4952 kbps Аудио 1: AC3, 6 ch, ~384 kbps - | Русский | Аудио 2: E-AC3, 6 ch, ~640 kbps - | Английский | Формат субтитров: softsub (SRT)
[+] M/IGeneral Unique ID : 74223836927989162574730085511701036707 (0x37D6FDB302021C83ADACAED1E5117EA3) Complete name : S:Asphalt.City.2023.AMZN.WEB-DL.720p.x264.seleZen.mkv Format : Matroska Format version : Version 4 File size : 5.22 GiB Duration : 2 h 5 min Overall bit rate : 5 978 kb/s Frame rate : 23.976 FPS Movie name : Asphalt.City.2023.AMZN.WEB-DL.720p.x264.seleZen Encoded date : 2024-04-20 09:58:24 UTC Writing application : mkvmerge v83.0 ('Circle Of Friends') 64-bit Writing library : libebml v1.4.5 + libmatroska v1.7.1 Cover : Yes Attachments : cover.jpg / small_cover.jpg Video ID : 1 Format : AVC Format/Info : Advanced Video Codec Format profile : High@L3.1 Format settings : CABAC / 4 Ref Frames Format settings, CABAC : Yes Format settings, Reference : 4 frames Codec ID : V_MPEG4/ISO/AVC Duration : 2 h 5 min Bit rate mode : Constant Bit rate : 4 952 kb/s Nominal bit rate : 6 000 kb/s Width : 1 280 pixels Height : 544 pixels Display aspect ratio : 2.35:1 Original display aspect rat : 2.35:1 Frame rate mode : Constant Frame rate : 23.976 (24000/1001) FPS Color space : YUV Chroma subsampling : 4:2:0 Bit depth : 8 bits Scan type : Progressive Bits/(Pixel*Frame) : 0.297 Stream size : 4.33 GiB (83%) Title : -=DoMiNo=- Language : English Default : Yes Forced : No Color range : Limited Color primaries : BT.709 Transfer characteristics : BT.709 Matrix coefficients : BT.709 Audio #1 ID : 2 Format : AC-3 Format/Info : Audio Coding 3 Commercial name : Dolby Digital Codec ID : A_AC3 Duration : 2 h 5 min Bit rate mode : Constant Bit rate : 384 kb/s Channel(s) : 6 channels Channel layout : L R C LFE Ls Rs Sampling rate : 48.0 kHz Frame rate : 31.250 FPS (1536 SPF) Compression mode : Lossy Stream size : 344 MiB (6%) Title : MVO -Soundmasters 18 + Language : Russian Service kind : Complete Main Default : Yes Forced : No AC3_metadata cmixlev : -4.5 dB surmixlev : -6 dB Audio #2 ID : 3 Format : E-AC-3 Format/Info : Enhanced AC-3 Commercial name : Dolby Digital Plus Codec ID : A_EAC3 Duration : 2 h 5 min Bit rate mode : Constant Bit rate : 640 kb/s Channel(s) : 6 channels Channel layout : L R C LFE Ls Rs Sampling rate : 48.0 kHz Frame rate : 31.250 FPS (1536 SPF) Compression mode : Lossy Stream size : 573 MiB (11%) Language : English (US) Service kind : Complete Main Default : No Forced : No Text #1 ID : 4 Format : UTF-8 Codec ID : S_TEXT/UTF8 Codec ID/Info : UTF-8 Plain Text Duration : 1 h 56 min Bit rate : 51 b/s Frame rate : 0.226 FPS Count of elements : 1581 Stream size : 44.0 KiB (0%) Language : English (GB) Default : No Forced : No Text #2 ID : 5 Format : UTF-8 Codec ID : S_TEXT/UTF8 Codec ID/Info : UTF-8 Plain Text Duration : 2 h 4 min Bit rate : 61 b/s Frame rate : 0.272 FPS Count of elements : 2034 Stream size : 56.3 KiB (0%) Title : SDH Language : English (GB) Default : No Forced : No Menu 00:00:00.000 : en:Chapter 01 00:05:50.000 : en:Chapter 02 00:11:40.000 : en:Chapter 03 00:17:30.000 : en:Chapter 04 00:23:20.000 : en:Chapter 05 00:29:10.000 : en:Chapter 06 00:35:00.000 : en:Chapter 07 00:40:50.000 : en:Chapter 08 00:46:40.000 : en:Chapter 09 00:52:30.000 : en:Chapter 10 00:58:20.000 : en:Chapter 11 01:04:10.000 : en:Chapter 12 01:10:00.000 : en:Chapter 13 01:15:50.000 : en:Chapter 14 01:21:40.000 : en:Chapter 15 01:27:30.000 : en:Chapter 16 01:33:20.000 : en:Chapter 17 01:39:10.000 : en:Chapter 18 01:45:00.000 : en:Chapter 19 01:50:50.000 : en:Chapter 20 01:56:40.000 : en:Chapter 21 02:02:30.000 : en:Chapter 22
Релиз: Присоединяйся к: Кликай на баннеры.

Всего файлов в раздаче: 1 
Asphalt.City.2023.AMZN.WEB-DL.720p.x264.seleZen.mkv5.22 GB

Похожие раздачи по запросу - Асфальтовые
2024-05-17 magnet Асфальтовые джунгли / Asphalt City (2023) WEB-DL 1080p от New-Team | D, L | Soundmasters 9.51 GB ↑ 1 ↓ 0
2024-04-21 magnet Асфальтовые джунгли / Asphalt City (2023) WEB-DLRip от ExKinoRay | L 752.79 MB ↑ 0 ↓ 0
2024-04-20 magnet Асфальтовые джунгли / Asphalt City (2023) WEB-DLRip-AVC от New-Team | L | Soundmaster 2.18 GB ↑ 0 ↓ 0
2024-04-20 magnet Асфальтовые джунгли / Asphalt City (2023) WEB-DLRip от New-Team | L | Soundmaster 1.46 GB ↑ 0 ↓ 0
2024-04-20 magnet Асфальтовые джунгли / Asphalt City (2023) WEB-DL 1080p от New-Team | L | Soundmaster 9.34 GB ↑ 0 ↓ 0

Комментарии


Зарегистрируйтесь чтобы добавить комментарий
Торрент клиент
byTorrent - программа для загрузки торрент-файлов.

Скачать byTorrent.exe (1,5 МБ)

Скачать byTorrent.zip (0,6 МБ)

Поддержи torrent.by
российских рублей
(300 российских рублей это 4$)

Обратная связь rss

End game ©