↑↓torrent.by
Поиск
Логин:  Регистрация
Пароль:

Венсан должен умереть / Vincent doit mourir / Vincent Must Die (2023) HDRip от New-Team | P

download Скачать торрент-файл   magnet Магнитная ссылка Размер: 1.46 GB Добавлен: 2024-04-21 05:00
Пиры будут получены из сети DHT
Последний сидер был замечен 2024-05-17 21:45
Венсан должен умереть / Vincent doit mourir / Vincent Must Die Год выпуска: 2023 Выпущено: Франция, Бельгия / Capricci Films, Bobi Lux, Gapbusters Жанр: ужасы, фэнтези, триллер, драма, комедия Режиссер: Стефан Кастанг / Stéphan Castang В ролях: Карим Леклу, Вимала Понс, Франсуа Шатто, Жан-Реми Шез, Улисс Женевре, Каролин Руз, Эммануэль Верите, Себастьян Шабан, Бенуа Ламберт О фильме: Однажды коллеги нападают на дизайнера Венсана - бьют его по лицу ноутбуком и ручкой протыкают запястье. Мужчине дают отпуск, и он уезжает за город к родителям. На заправке Венсан знакомится с бездомным, и тот рассказывает, что подобных Венсану людей зовут сателлитами: они одним лишь взглядом провоцируют других на насилие и потому живут изолированно от общества. Продолжительность: 01:48:16 Перевод: Профессиональный (многоголосый, закадровый) | Тоникс Медиа по заказу Русский репортаж Субтитры: нет. Раздача от: Автор релиза: JNS82. Формат: AVI Качество: HDRip Видео: 720x304 (2.35:1), 23.976 fps, XviD MPEG-4 ~ 1733 kbps avg, 0.330 bit/pixel, build 74 Аудио: 48 kHz, AC3 Dolby Digital, 2/0 (L,R) ch, ~ 192 kbps | RUS |
[+] MediaInfoОбщее Полное имя : D:TorrentsVincent.doit.mourir.2023.HDRip_от New-Team_by_JNS82.avi Формат : AVI Формат/Информация : Audio Video Interleave Настройки формата : WaveFormatEx Размер файла : 1,46 Гбайт Продолжительность : 1 ч. 48 мин. Общий битрейт : 1 934 Кбит/сек Частота кадров : 24,000 кадра/сек Программа кодирования : VirtualDubMod 1.5.10.2 (build 2540/release) Библиотека кодирования : VirtualDubMod build 2540/release Видео Идентификатор : 0 Формат : MPEG-4 Visual Профиль формата : Advanced Simple@L5 Настройки формата : BVOP1 / Custom Matrix Параметр BVOP формата : 1 Параметр QPel формата : Нет Параметр GMC формата : Без точки перехода Параметр Matrix формата : Выборочная Идентификатор кодека : XVID Идентификатор кодека/Подсказка : XviD Продолжительность : 1 ч. 48 мин. Битрейт : 1 733 Кбит/сек Ширина : 720 пикселей Высота : 304 пикселя Соотношение сторон дисплея : 2,35:1 Частота кадров : 24,000 кадра/сек Цветовое пространство : YUV Цветовая субдискретизация : 4:2:0 Битовая глубина : 8 бит Тип развёртки : Прогрессивная Метод сжатия : С потерями Бит/(Пиксели*Кадры) : 0.330 Размер потока : 1,31 Гбайт (90%) Библиотека кодирования : XviD 74 Аудио Идентификатор : 1 Формат : AC-3 Формат/Информация : Audio Coding 3 Коммерческое название : Dolby Digital Идентификатор кодека : 2000 Продолжительность : 1 ч. 48 мин. Вид битрейта : Постоянный Битрейт : 192 Кбит/сек Канал(-ы) : 2 канала Расположение каналов : L R Частота дискретизации : 48,0 КГц Частота кадров : 31,250 кадров/сек (1536 SPF) Метод сжатия : С потерями Размер потока : 149 Мбайт (10%) Выравнивание : Разделение по промежуткам Чередование, продолжительность : 42 мс. (1,00 видеокадр) Чередование, продолжительность пред.загр : 500 мс. Вид сервиса : Complete Main Нормализация звука речи : -31 dB dialnorm_Average : -31 dB dialnorm_Minimum : -31 dB dialnorm_Maximum : -31 dB

Всего файлов в раздаче: 1 
Vincent.doit.mourir.2023.HDRip_от New-Team_by_JNS82.avi1.46 GB

Похожие раздачи по запросу - Венсан
2024-04-21 magnet Венсан должен умереть / Vincent doit mourir / Vincent Must Die (2023) BDRip 720p от ExKinoRay | P 3.65 GB ↑ 0 ↓ 0
2024-04-20 magnet Венсан должен умереть / Vincent doit mourir / Vincent Must Die (2023) BDRip 1080p от ExKinoRay | P 7.33 GB ↑ 0 ↓ 0

Кто качает (только для создателя раздачи и модераторов): Локальные пиры отсутствуют

Комментарии


Зарегистрируйтесь чтобы добавить комментарий
Торрент клиент
byTorrent - программа для загрузки торрент-файлов.

Скачать byTorrent.exe (1,5 МБ)

Скачать byTorrent.zip (0,6 МБ)

Поддержи torrent.by
российских рублей
(300 российских рублей это 4$)

Обратная связь rss

End game ©