↑↓torrent.by
Поиск
Логин:  Регистрация
Пароль:

Лето. Нулевые (2024) WEB-DLRip-AVC от New-Team

download Скачать торрент-файл   magnet Магнитная ссылка Размер: 1.46 GB Добавлен: 2024-04-21 05:00
Пиры будут получены из сети DHT
Последний сидер был замечен вчера в 21:40
Лето. Нулевые Год выпуска: 2024 Выпущено: Россия / Киностудия Соль Жанр: драма, мелодрама, комедия Режиссер: Сергей Илютин В ролях: Тимофей Кочнев, Кирилл Доронин, Иван Федоров, Роман Маякин, Анна Котова, Денис Шведов, Анастасия Цыбульская, Ольга Лапшина, Михаил Иванов, Василий Шевцов О фильме: Сколько себя помнит Сашка, он всегда жил в этом маленьком городке Тверской области. Ему знаком здесь каждый дом, каждый поворот и почти все жители. Закончился учебный год, впереди длинные каникулы, которые 15-летний подросток планирует провести как обычно: болтаться с друзьями на речке, часами резаться на приставке в игровом клубе, ездить на рыбалку и ходить на местную дискотеку. Но это лето будет особенным: Сашку ждут по-настоящему взрослые неприятности и такая же настоящая первая любовь. Продолжительность: 01:28:32 Перевод: Оригинал | KION Субтитры: Нет Раздача от: Автор релиза: JNS82. Формат: MKV Качество: WEB-DLRip-AVC Видео: MPEG-4 AVC, x264, 1917 Кбит/с, (16:9), 1024x576, 24.000 fps Аудио #1: 48 kHz, AC3 Dolby Digital, 3/2 (L,C,R,l,r) + LFE ch, ~ 448 kbps | RUS |
[+] MediaInfoОбщее Уникальный идентификатор : 150512301514551569137652876735557447412 (0x713B9D66B6F4C31326D2106B8E28AEF4) Полное имя : D:TorrentsLeto.Nulevyie.2023.WEB-DLRip-AVC_от_New-Team_by_JNS82.mkv Формат : Matroska Версия формата : Version 4 Размер файла : 1,46 Гбайт Продолжительность : 1 ч. 28 мин. Общий битрейт : 2 364 Кбит/сек Частота кадров : 24,000 кадра/сек Название фильма : Leto.Nulevyie.2023.WEB-DLRip-AVC_от_New-Team_by_JNS82 Дата кодирования : 2024-04-20 12:25:14 UTC Программа кодирования : mkvmerge v79.0 ('Funeral Pyres') 64-bit Библиотека кодирования : libebml v1.4.4 + libmatroska v1.7.1 Видео Идентификатор : 1 Формат : AVC Формат/Информация : Advanced Video Codec Профиль формата : High@L4.1 Настройки формата : CABAC / 14 Ref Frames Параметр CABAC формата : Да Параметр RefFrames формата : 14 кадров Идентификатор кодека : V_MPEG4/ISO/AVC Продолжительность : 1 ч. 28 мин. Битрейт : 1 917 Кбит/сек Ширина : 1 024 пикселя Высота : 576 пикселей Соотношение сторон дисплея : 16:9 Режим частоты кадров : Постоянный Частота кадров : 24,000 кадра/сек Цветовое пространство : YUV Цветовая субдискретизация : 4:2:0 Битовая глубина : 8 бит Тип развёртки : Прогрессивная Бит/(Пиксели*Кадры) : 0.135 Размер потока : 1,18 Гбайт (81%) Библиотека кодирования : x264 core 164 r3156+57M NewTeam t_mod_New Параметры библиотеки кодирования : cabac=1 / ref=14 / deblock=1:-2:-2 / analyse=0x3:0x133 / me=umh / subme=10 / psy=1 / fade_compensate=0.00 / psy_rd=1.03:0.01 / mixed_ref=1 / me_range=32 / chroma_me=1 / trellis=2 / 8x8dct=1 / cqm=0 / deadzone=21,11 / fast_pskip=0 / chroma_qp_offset=-3 / threads=18 / lookahead_threads=4 / sliced_threads=0 / nr=0 / decimate=0 / interlaced=0 / bluray_compat=0 / constrained_intra=0 / fgo=0 / bframes=12 / b_pyramid=2 / b_adapt=2 / b_bias=0 / direct=3 / weightb=1 / open_gop=0 / weightp=2 / keyint=240 / keyint_min=23 / scenecut=40 / intra_refresh=0 / rc_lookahead=60 / rc=2pass / mbtree=0 / bitrate=1917 / ratetol=1.0 / qcomp=0.60 / qpmin=0:0:0 / qpmax=69:69:69 / qpstep=4 / cplxblur=20.0 / qblur=0.5 / vbv_maxrate=50000 / vbv_bufsize=62500 / nal_hrd=none / filler=0 / ip_ratio=1.40 / pb_ratio=1.30 / aq=1:1.00 / aq-sensitivity=10.00 / aq-factor=1.00:1.00:1.00 / aq2=0 / aq3=0 Язык : Английский По умолчанию : Да Принудительно : Нет Аудио Идентификатор : 2 Формат : AC-3 Формат/Информация : Audio Coding 3 Коммерческое название : Dolby Digital Идентификатор кодека : A_AC3 Продолжительность : 1 ч. 28 мин. Вид битрейта : Постоянный Битрейт : 448 Кбит/сек Канал(-ы) : 6 каналов Расположение каналов : L R C LFE Ls Rs Частота дискретизации : 48,0 КГц Частота кадров : 31,250 кадров/сек (1536 SPF) Метод сжатия : С потерями Размер потока : 284 Мбайт (19%) Заголовок : KION Язык : Русский Вид сервиса : Complete Main По умолчанию : Да Принудительно : Нет Нормализация звука речи : -31 dB cmixlev : -4.5 dB surmixlev : -6 dB dialnorm_Average : -31 dB dialnorm_Minimum : -31 dB dialnorm_Maximum : -31 dB

Всего файлов в раздаче: 1 
Leto.Nulevyie.2023.WEB-DLRip-AVC_от_New-Team_by_JNS82.mkv1.46 GB

Похожие раздачи по запросу - Лето
2024-05-08 magnet Между нами лето (2024) WEB-DLRip от MegaPeer 1.46 GB ↑ 0 ↓ 0
2024-05-08 magnet Между нами лето (2024) WEB-DL 720p 2.43 GB ↑ 0 ↓ 0
2024-05-08 magnet Между нами лето (2024) WEB-DL 1080p 4.34 GB ↑ 0 ↓ 0
2024-05-06 magnet Мое итальянское лето / Gli anni belli (2022) WEB-DLRip-AVC от DoMiNo & селезень | P 1.46 GB ↑ 0 ↓ 0
2024-04-24 magnet Лето. Нулевые (2023) WEB-DLRip от ExKinoRay | KION 741.31 MB ↑ 0 ↓ 0
2024-04-20 magnet Лето. Нулевые (2023) WEB-DL 1080p от ELEKTRI4KA | KION 4.17 GB ↑ 0 ↓ 0
2024-04-20 magnet Лето. Нулевые (2023) WEB-DLRip от ELEKTRI4KA | KION 1.46 GB ↑ 0 ↓ 0

Кто качает (только для создателя раздачи и модераторов): Локальные пиры отсутствуют

Комментарии


Зарегистрируйтесь чтобы добавить комментарий
Торрент клиент
byTorrent - программа для загрузки торрент-файлов.

Скачать byTorrent.exe (1,5 МБ)

Скачать byTorrent.zip (0,6 МБ)

Поддержи torrent.by
российских рублей
(300 российских рублей это 4$)

Обратная связь rss

End game ©