↑↓torrent.by
Поиск
Логин:  Регистрация
Пароль:

Злобные маленькие письма / Wicked Little Letters (2023) WEB-DLRip от New-Team | A | Сербин

download Скачать торрент-файл   magnet Магнитная ссылка Размер: 1.46 GB Добавлен: 2024-04-21 11:00
Пиры будут получены из сети DHT
Последний сидер был замечен 2024-04-26 16:51
Злобные маленькие письма / Wicked Little Letters Год выпуска: 2023 Выпущено: Великобритания, США, Франция / Blueprint Pictures, Film Four Ltd. Жанр: комедия, драма, детектив, криминал, история Режиссер: Теа Шэррок / Thea Sharrock В ролях: Оливия Колман, Джесси Бакли, Тимоти Сполл, Хью Скиннер, Анджана Васан, Джемма Джонс, Лолли Адефоп, Эйлин Аткинс, Джейсон Уоткинс, Джоанна Скэнлан, Малачи Кирби, Сьюзи Фэйрфакс, Алиша Уэйр, Ричард Гулдинг. О фильме: Действие фильма разворачиваетсятся в 1920-е годы. Жители приморского городка Литлхэмптон однажды начинают получать скандальные письма, написанные в бранной и эксцентричной манере. Первой и главной подозреваемой в этом деле становится Роуз. Девушка обладает своенравным характером, к тому же рискует лишиться опеки над единственной дочерью. Чтобы преодолеть все неприятности, она активно помогает следствию, которое ведет местная представительница стражей правопорядка. Вместе женщины пробуют разобраться в непростом деле, найти и разоблачить подлинного преступника. Продолжительность: 01:40:04 Перевод: Авторский (одноголосый, закадровый) | Ю. Сербин | 18+ Субтитры: Русские (full), английские (full), Раздача от: Автор релиза: JNS82. Формат: AVI Качество: WEB-DLRip Видео: 704x384 (1.85:1), 24.000 fps, XviD MPEG-4 ~ 1699 kbps avg, 0.262 bit/pixel, build 74 Аудио: 48 kHz, AC3 Dolby Digital, 3/2 (L,C,R,l,r) + LFE ch, ~ 384 kbps | RUS |
[+] MediaInfoОбщее Полное имя : D:TorrentsWicked.Little.Letters.2023.WEB-DLRip_от New-Team_by_JNS82Wicked.Little.Letters.2023.WEB-DLRip_от New-Team_by_JNS82.avi Формат : AVI Формат/Информация : Audio Video Interleave Настройки формата : WaveFormatEx Размер файла : 1,46 Гбайт Продолжительность : 1 ч. 40 мин. Общий битрейт : 2 092 Кбит/сек Частота кадров : 24,000 кадра/сек Программа кодирования : VirtualDubMod 1.5.10.2 (build 2540/release) Библиотека кодирования : VirtualDubMod build 2540/release Видео Идентификатор : 0 Формат : MPEG-4 Visual Профиль формата : Advanced Simple@L5 Настройки формата : BVOP1 / Custom Matrix Параметр BVOP формата : 1 Параметр QPel формата : Нет Параметр GMC формата : Без точки перехода Параметр Matrix формата : Выборочная Идентификатор кодека : XVID Идентификатор кодека/Подсказка : XviD Продолжительность : 1 ч. 40 мин. Битрейт : 1 699 Кбит/сек Ширина : 704 пикселя Высота : 384 пикселя Соотношение сторон дисплея : 1,85:1 Частота кадров : 24,000 кадра/сек Цветовое пространство : YUV Цветовая субдискретизация : 4:2:0 Битовая глубина : 8 бит Тип развёртки : Прогрессивная Метод сжатия : С потерями Бит/(Пиксели*Кадры) : 0.262 Размер потока : 1,19 Гбайт (81%) Библиотека кодирования : XviD 74 Аудио Идентификатор : 1 Формат : AC-3 Формат/Информация : Audio Coding 3 Коммерческое название : Dolby Digital Идентификатор кодека : 2000 Продолжительность : 1 ч. 40 мин. Вид битрейта : Постоянный Битрейт : 384 Кбит/сек Канал(-ы) : 6 каналов Расположение каналов : L R C LFE Ls Rs Частота дискретизации : 48,0 КГц Частота кадров : 31,250 кадров/сек (1536 SPF) Метод сжатия : С потерями Размер потока : 275 Мбайт (18%) Выравнивание : Разделение по промежуткам Чередование, продолжительность : 42 мс. (1,00 видеокадр) Чередование, продолжительность пред.загр : 500 мс. Вид сервиса : Complete Main Нормализация звука речи : -31 dB cmixlev : -4.5 dB surmixlev : -6 dB dialnorm_Average : -31 dB dialnorm_Minimum : -31 dB dialnorm_Maximum : -31 dB

Всего файлов в раздаче: 3 
Wicked.Little.Letters.2023.WEB-DLRip_от New-Team_by_JNS82.avi1.46 GB
Wicked.Little.Letters.2023.WEB-DLRip_от New-Team_by_JNS82_[eng].srt91.95 kB
Wicked.Little.Letters.2023.WEB-DLRip_от New-Team_by_JNS82_[rus].srt118.86 kB

Похожие раздачи по запросу - Злобные
2024-05-16 magnet Злобные маленькие письма / Wicked Little Letters (2023) BDRip 720p от DoMiNo & селезень | A | Сербин 4.18 GB ↑ 0 ↓ 0
2024-05-16 magnet Злобные маленькие письма / Wicked Little Letters (2023) BDRip-AVC от DoMiNo & селезень | A | Сербин 1.46 GB ↑ 0 ↓ 0
2024-05-16 magnet Злобные маленькие письма / Wicked Little Letters (2023) BDRip-AVC от New-Team | A | Сербин 2.18 GB ↑ 0 ↓ 0
2024-05-16 magnet Злобные маленькие письма / Wicked Little Letters (2023) BDRip от New-Team | A | Сербин 1.46 GB ↑ 0 ↓ 0
2024-04-21 magnet Злобные маленькие письма / Wicked Little Letters (2023) WEB-DL 720p от селезень | A | Сербин 3.11 GB ↑ 0 ↓ 0
2024-04-21 magnet Злобные маленькие письма / Wicked Little Letters (2023) WEB-DL 1080p от New-Team | A | Сербин 7.09 GB ↑ 1 ↓ 0

Кто качает (только для создателя раздачи и модераторов): Локальные пиры отсутствуют

Комментарии


Зарегистрируйтесь чтобы добавить комментарий
Торрент клиент
byTorrent - программа для загрузки торрент-файлов.

Скачать byTorrent.exe (1,5 МБ)

Скачать byTorrent.zip (0,6 МБ)

Поддержи torrent.by
российских рублей
(300 российских рублей это 4$)

Обратная связь rss

End game ©