↑↓torrent.by
Поиск
Логин:  Регистрация
Пароль:

Злобные маленькие письма / Wicked Little Letters (2023) WEB-DL 1080p от New-Team | A | Сербин

download Скачать торрент-файл   magnet Магнитная ссылка Размер: 7.09 GB Раздают: 1 Качают: 0 Добавлен: 2024-04-21 11:00
Пиры будут получены из сети DHT
Последний сидер был замечен сегодня в 09:51
Злобные маленькие письма / Wicked Little Letters Год выпуска: 2023 Выпущено: Великобритания, США, Франция / Blueprint Pictures, Film Four Ltd. Жанр: комедия, драма, детектив, криминал, история Режиссер: Теа Шэррок / Thea Sharrock В ролях: Оливия Колман, Джесси Бакли, Тимоти Сполл, Хью Скиннер, Анджана Васан, Джемма Джонс, Лолли Адефоп, Эйлин Аткинс, Джейсон Уоткинс, Джоанна Скэнлан, Малачи Кирби, Сьюзи Фэйрфакс, Алиша Уэйр, Ричард Гулдинг. О фильме: Действие фильма разворачиваетсятся в 1920-е годы. Жители приморского городка Литлхэмптон однажды начинают получать скандальные письма, написанные в бранной и эксцентричной манере. Первой и главной подозреваемой в этом деле становится Роуз. Девушка обладает своенравным характером, к тому же рискует лишиться опеки над единственной дочерью. Чтобы преодолеть все неприятности, она активно помогает следствию, которое ведет местная представительница стражей правопорядка. Вместе женщины пробуют разобраться в непростом деле, найти и разоблачить подлинного преступника. Продолжительность: 01:40:04 Перевод: Авторский (одноголосый, закадровый) | Ю. Сербин | 18+ Субтитры: Русские (full), английские (full, SDH) Раздача от: Автор релиза: JNS82. Формат: MKV Качество: WEB-DL 1080p | AMZN Видео: MPEG-4 AVC, x264, 9110 Кбит/с, (1,85:1), 1920x1040, 24,000 fps Аудио #1: 48 kHz, AC3 Dolby Digital, 3/2 (L,C,R,l,r) + LFE ch, ~ 384 kbps | RUS | Аудио #2: 48 kHz, E-AC3 Dolby Digital, 3/2 (L,C,R,l,r) + LFE ch, ~ 640 kbps | ENG |
[+] MediaInfoОбщее Уникальный идентификатор : 10754540045907091029646635687030765468 (0x8173FC322337E72208D943C84C3379C) Полное имя : D:TorrentsWicked.Little.Letters.2023.1080p.AMZN_от New-Team.mkv Формат : Matroska Версия формата : Version 4 Размер файла : 7,09 Гбайт Продолжительность : 1 ч. 40 мин. Общий битрейт : 10,1 Мбит/сек Частота кадров : 24,000 кадра/сек Название фильма : Wicked.Little.Letters.2023.1080p.AMZN_от New-Team Дата кодирования : 2024-04-21 02:05:29 UTC Программа кодирования : mkvmerge v79.0 ('Funeral Pyres') 64-bit Библиотека кодирования : libebml v1.4.4 + libmatroska v1.7.1 Видео Идентификатор : 1 Формат : AVC Формат/Информация : Advanced Video Codec Профиль формата : High@L4 Настройки формата : CABAC / 4 Ref Frames Параметр CABAC формата : Да Параметр RefFrames формата : 4 кадра Идентификатор кодека : V_MPEG4/ISO/AVC Продолжительность : 1 ч. 40 мин. Вид битрейта : Постоянный Битрейт : 9 110 Кбит/сек Номинальный битрейт : 10 000 Кбит/сек Ширина : 1 920 пикселей Высота : 1 040 пикселей Соотношение сторон дисплея : 1,85:1 Режим частоты кадров : Постоянный Частота кадров : 24,000 кадра/сек Цветовое пространство : YUV Цветовая субдискретизация : 4:2:0 Битовая глубина : 8 бит Тип развёртки : Прогрессивная Бит/(Пиксели*Кадры) : 0.190 Размер потока : 6,37 Гбайт (90%) Язык : Английский (GB) По умолчанию : Да Принудительно : Нет Цветовой диапазон : Limited Основные цвета : BT.709 Характеристики трансфера : BT.709 Коэффициенты матрицы : BT.709 Аудио #1 Идентификатор : 2 Формат : AC-3 Формат/Информация : Audio Coding 3 Коммерческое название : Dolby Digital Идентификатор кодека : A_AC3 Продолжительность : 1 ч. 40 мин. Вид битрейта : Постоянный Битрейт : 384 Кбит/сек Канал(-ы) : 6 каналов Расположение каналов : L R C LFE Ls Rs Частота дискретизации : 48,0 КГц Частота кадров : 31,250 кадров/сек (1536 SPF) Метод сжатия : С потерями Размер потока : 275 Мбайт (4%) Заголовок : AVO - Ю.Сербин | 18 + Язык : Русский Вид сервиса : Complete Main По умолчанию : Да Принудительно : Нет Нормализация звука речи : -31 dB cmixlev : -4.5 dB surmixlev : -6 dB dialnorm_Average : -31 dB dialnorm_Minimum : -31 dB dialnorm_Maximum : -31 dB Аудио #2 Идентификатор : 3 Формат : E-AC-3 Формат/Информация : Enhanced AC-3 Коммерческое название : Dolby Digital Plus Идентификатор кодека : A_EAC3 Продолжительность : 1 ч. 40 мин. Вид битрейта : Постоянный Битрейт : 640 Кбит/сек Канал(-ы) : 6 каналов Расположение каналов : L R C LFE Ls Rs Частота дискретизации : 48,0 КГц Частота кадров : 31,250 кадров/сек (1536 SPF) Метод сжатия : С потерями Размер потока : 458 Мбайт (6%) Заголовок : Original Язык : Английский (GB) Вид сервиса : Complete Main По умолчанию : Нет Принудительно : Нет Нормализация звука речи : -31 dB compr : -0.28 dB dialnorm_Average : -31 dB dialnorm_Minimum : -31 dB dialnorm_Maximum : -31 dB Текст #1 Идентификатор : 4 Формат : UTF-8 Идентификатор кодека : S_TEXT/UTF8 Идентификатор кодека/Информация : UTF-8 Plain Text Продолжительность : 1 ч. 31 мин. Битрейт : 108 бит/сек Частота кадров : 0,209 кадр/сек Число элементов : 1154 Размер потока : 73,3 КиБ (0%) Заголовок : Язык : Русский По умолчанию : Нет Принудительно : Нет Текст #2 Идентификатор : 5 Формат : UTF-8 Идентификатор кодека : S_TEXT/UTF8 Идентификатор кодека/Информация : UTF-8 Plain Text Продолжительность : 1 ч. 31 мин. Битрейт : 68 бит/сек Частота кадров : 0,212 кадр/сек Число элементов : 1171 Размер потока : 46,1 КиБ (0%) Заголовок : Язык : Английский (GB) По умолчанию : Нет Принудительно : Нет Текст #3 Идентификатор : 6 Формат : UTF-8 Идентификатор кодека : S_TEXT/UTF8 Идентификатор кодека/Информация : UTF-8 Plain Text Продолжительность : 1 ч. 33 мин. Битрейт : 71 бит/сек Частота кадров : 0,222 кадр/сек Число элементов : 1242 Размер потока : 48,5 КиБ (0%) Заголовок : Язык : Английский (GB) По умолчанию : Нет Принудительно : Нет Меню 00:00:00.000 : en:Scene 1 01:34:44.541 : en:End Credits

Всего файлов в раздаче: 1 
Wicked.Little.Letters.2023.1080p.AMZN_от New-Team.mkv7.09 GB

Похожие раздачи по запросу - Злобные
2024-05-16 magnet Злобные маленькие письма / Wicked Little Letters (2023) BDRip 720p от DoMiNo & селезень | A | Сербин 4.18 GB ↑ 0 ↓ 0
2024-05-16 magnet Злобные маленькие письма / Wicked Little Letters (2023) BDRip-AVC от DoMiNo & селезень | A | Сербин 1.46 GB ↑ 0 ↓ 0
2024-05-16 magnet Злобные маленькие письма / Wicked Little Letters (2023) BDRip-AVC от New-Team | A | Сербин 2.18 GB ↑ 0 ↓ 0
2024-05-16 magnet Злобные маленькие письма / Wicked Little Letters (2023) BDRip от New-Team | A | Сербин 1.46 GB ↑ 0 ↓ 0
2024-04-21 magnet Злобные маленькие письма / Wicked Little Letters (2023) WEB-DL 720p от селезень | A | Сербин 3.11 GB ↑ 0 ↓ 0
2024-04-21 magnet Злобные маленькие письма / Wicked Little Letters (2023) WEB-DLRip от New-Team | A | Сербин 1.46 GB ↑ 0 ↓ 0

Комментарии


Зарегистрируйтесь чтобы добавить комментарий
Торрент клиент
byTorrent - программа для загрузки торрент-файлов.

Скачать byTorrent.exe (1,5 МБ)

Скачать byTorrent.zip (0,6 МБ)

Поддержи torrent.by
российских рублей
(300 российских рублей это 4$)

Обратная связь rss

End game ©