↑↓torrent.by
Поиск
Логин:  Регистрация
Пароль:

Мятежная Луна, часть 2: Оставляющая шрамы / Rebel Moon - Part Two: The Scargiver (2024) WEB-DLRip-AVC от New-Team | P | Jaskier

download Скачать торрент-файл   magnet Магнитная ссылка Размер: 2.03 GB Добавлен: 2024-04-21 11:00
Пиры будут получены из сети DHT
Последний сидер был замечен 2024-04-28 21:11
Мятежная Луна, часть 2: Оставляющая шрамы / Rebel Moon - Part Two: The Scargiver Год выпуска: 2024 Выпущено: США / Grand Electric, The Stone Quarry Жанр: фантастика, фэнтези, боевик, драма, приключения Режиссер: Зак Снайдер / Zack Snyder В ролях: София Бутелла, Джимон Хонсу, Эд Скрейн, Михиль Хаусман, Стаз Наир, Джена Мэлоун, Чарли Ханнэм, Пэ Дуна, Клеопатра Коулмэн, Кэри Элвис, Стюарт Мартин, Рэй Фишер, Кори Столл, Альфонсо Эррера, Триша Симмонс, Фра Фи, Саванна Ганн, Джозефина Линдегард, Скай Ян, Райан Рис, Кингстон Фостер, Томм Восс, Тор Кнай, Рафаэль Коркхилл, Гаден Драгомер, Кристин Келлогг-Даррин, Мэтт Нолан, Кендалл Уэллс, Ивэн Шафран, Майкл Джеймс Белл, Даррен Джейкобс, Адам Джей Смит, Пол Кулос, Эрик Томас О фильме: События фильма разворачиваются во вселенной, контролируемой коррумпированным правительством Праматери. Кора и выжившие воины готовятся пожертвовать всем, сражаясь плечом к плечу с народом Вельдта. Накануне битвы героям предстоит взглянуть в лицо своему прошлому и понять за что они должны биться. Продолжительность: 02:03:54 Перевод: Профессиональный (многоголосый закадровый) | Jaskier Субтитры: Русские (full), английские (SDH) Раздача от: Автор релиза: JNS82. Формат: MKV Качество: WEB-DLRip-AVC Видео: MPEG-4 AVC, x264, 1576 Кбит/с, (2,40:1), 1024x424, 24,000 fps Аудио #1: 48 kHz, AC3 Dolby Digital, 3/2 (L,C,R,l,r) + LFE ch, ~ 384 | RUS | Аудио #2: 48 kHz, AC3 JOC Dolby Digital, 3/2 (L,C,R,l,r) + LFE ch, ~ 384 kbps | ENG |
[+] MediaInfoОбщее Уникальный идентификатор : 245501206611463605488369552060100065759 (0xB8B1D0014931DF74ACA1673FA20739DF) Полное имя : D:TorrentsRebel.Moon.Part.Two.The.Scargiver.2024.WEB-DLRip-AVC_от New-Team_by_JNS82.mkv Формат : Matroska Версия формата : Version 4 Размер файла : 2,03 Гбайт Продолжительность : 2 ч. 3 мин. Общий битрейт : 2 345 Кбит/сек Частота кадров : 24,000 кадра/сек Название фильма : Rebel.Moon.Part.Two.The.Scargiver.2024.WEB-DLRip-AVC_от New-Team_by_JNS82 Дата кодирования : 2024-04-21 05:12:23 UTC Программа кодирования : mkvmerge v79.0 ('Funeral Pyres') 64-bit Библиотека кодирования : libebml v1.4.4 + libmatroska v1.7.1 Видео Идентификатор : 1 Формат : AVC Формат/Информация : Advanced Video Codec Профиль формата : High@L4.1 Настройки формата : CABAC / 12 Ref Frames Параметр CABAC формата : Да Параметр RefFrames формата : 12 кадров Идентификатор кодека : V_MPEG4/ISO/AVC Продолжительность : 2 ч. 3 мин. Битрейт : 1 576 Кбит/сек Ширина : 1 024 пикселя Высота : 424 пикселя Соотношение сторон дисплея : 2,40:1 Режим частоты кадров : Постоянный Частота кадров : 24,000 кадра/сек Цветовое пространство : YUV Цветовая субдискретизация : 4:2:0 Битовая глубина : 8 бит Тип развёртки : Прогрессивная Бит/(Пиксели*Кадры) : 0.151 Размер потока : 1,36 Гбайт (67%) Библиотека кодирования : x264 core 164 r3156+57M NewTeam t_mod_New Параметры библиотеки кодирования : cabac=1 / ref=12 / deblock=1:-3:-2 / analyse=0x3:0x133 / me=umh / subme=10 / psy=1 / fade_compensate=0.00 / psy_rd=1.03:0.01 / mixed_ref=1 / me_range=32 / chroma_me=1 / trellis=2 / 8x8dct=1 / cqm=0 / deadzone=21,11 / fast_pskip=0 / chroma_qp_offset=-3 / threads=13 / lookahead_threads=3 / sliced_threads=0 / nr=0 / decimate=0 / interlaced=0 / bluray_compat=0 / constrained_intra=0 / fgo=0 / bframes=11 / b_pyramid=2 / b_adapt=2 / b_bias=0 / direct=3 / weightb=1 / open_gop=0 / weightp=2 / keyint=240 / keyint_min=23 / scenecut=40 / intra_refresh=0 / rc_lookahead=60 / rc=2pass / mbtree=0 / bitrate=1576 / ratetol=1.0 / qcomp=0.60 / qpmin=0:0:0 / qpmax=69:69:69 / qpstep=4 / cplxblur=20.0 / qblur=0.5 / vbv_maxrate=50000 / vbv_bufsize=62500 / nal_hrd=none / filler=0 / ip_ratio=1.40 / pb_ratio=1.30 / aq=1:1.00 / aq-sensitivity=10.00 / aq-factor=1.00:1.00:1.00 / aq2=0 / aq3=0 Язык : Английский По умолчанию : Да Принудительно : Нет Цветовой диапазон : Limited Основные цвета : BT.709 Характеристики трансфера : BT.709 Коэффициенты матрицы : BT.709 Аудио #1 Идентификатор : 2 Формат : AC-3 Формат/Информация : Audio Coding 3 Коммерческое название : Dolby Digital Идентификатор кодека : A_AC3 Продолжительность : 2 ч. 3 мин. Вид битрейта : Постоянный Битрейт : 384 Кбит/сек Канал(-ы) : 6 каналов Расположение каналов : L R C LFE Ls Rs Частота дискретизации : 48,0 КГц Частота кадров : 31,250 кадров/сек (1536 SPF) Метод сжатия : С потерями Размер потока : 340 Мбайт (16%) Заголовок : MVO - Jaskier Язык : Русский Вид сервиса : Complete Main По умолчанию : Да Принудительно : Нет Нормализация звука речи : -31 dB cmixlev : -4.5 dB surmixlev : -6 dB dialnorm_Average : -31 dB dialnorm_Minimum : -31 dB dialnorm_Maximum : -31 dB Аудио #2 Идентификатор : 3 Формат : AC-3 Формат/Информация : Audio Coding 3 Коммерческое название : Dolby Digital Идентификатор кодека : A_AC3 Продолжительность : 2 ч. 3 мин. Вид битрейта : Постоянный Битрейт : 384 Кбит/сек Канал(-ы) : 6 каналов Расположение каналов : L R C LFE Ls Rs Частота дискретизации : 48,0 КГц Частота кадров : 31,250 кадров/сек (1536 SPF) Метод сжатия : С потерями Размер потока : 340 Мбайт (16%) Заголовок : Original Язык : Английский Вид сервиса : Complete Main По умолчанию : Нет Принудительно : Нет Нормализация звука речи : -31 dB cmixlev : -4.5 dB surmixlev : -6 dB dialnorm_Average : -31 dB dialnorm_Minimum : -31 dB dialnorm_Maximum : -31 dB Текст #1 Идентификатор : 4 Формат : UTF-8 Идентификатор кодека : S_TEXT/UTF8 Идентификатор кодека/Информация : UTF-8 Plain Text Продолжительность : 2 ч. 0 мин. Битрейт : 47 бит/сек Частота кадров : 0,118 кадр/сек Число элементов : 857 Размер потока : 41,8 КиБ (0%) Заголовок : Язык : Русский По умолчанию : Нет Принудительно : Нет Текст #2 Идентификатор : 5 Формат : UTF-8 Идентификатор кодека : S_TEXT/UTF8 Идентификатор кодека/Информация : UTF-8 Plain Text Продолжительность : 1 ч. 59 мин. Битрейт : 45 бит/сек Частота кадров : 0,191 кадр/сек Число элементов : 1378 Размер потока : 39,7 КиБ (0%) Заголовок : Язык : Английский По умолчанию : Нет Принудительно : Нет

Всего файлов в раздаче: 1 
Rebel.Moon.Part.Two.The.Scargiver.2024.WEB-DLRip-AVC_от New-Team_by_JNS82.mkv2.03 GB

Похожие раздачи по запросу - Мятежная
2024-05-03 magnet Мятежная Луна, часть 2: Оставляющая шрамы / Rebel Moon - Part Two: The Scargiver (2024) WEB-DL HEVC 2160p | 4K | HDR | Dolby Vision Profile 8 | D 11.25 GB ↑ 0 ↓ 1
2024-04-29 magnet Мятежная Луна, часть 2: Оставляющая шрамы / Rebel Moon - Part Two: The Scargiver (2024) WEB-DL 1080p от New-Team | D, P 6.30 GB ↑ 0 ↓ 0
2024-04-29 magnet Мятежная Луна, часть 2: Оставляющая шрамы / Rebel Moon - Part Two: The Scargiver (2024) WEB-DLRip 720p от DoMiNo & селезень | D, P, P2 4.39 GB ↑ 0 ↓ 0
2024-04-28 magnet Мятежная Луна, часть 2: Оставляющая шрамы / Rebel Moon - Part Two: The Scargiver (2024) WEB-DLRip 720p от DoMiNo & селезень | D, P, P2 3.78 GB ↑ 0 ↓ 0
2024-04-28 magnet Мятежная Луна, часть 2: Оставляющая шрамы / Rebel Moon - Part Two: The Scargiver (2024) WEB-DL 1080p от EniaHD | D, P, P2, L 7.79 GB ↑ 1 ↓ 0
2024-04-24 magnet Мятежная Луна, часть 2: Дарующая шрамы / Rebel Moon. Частина 2: Та, що лишає шрами / Rebel Moon - Part Two: The Scargiver (2024) WEB-DL-HEVC 2160p | 4K | HDR | Dolby Vision Profile 8 | D | Netflix | UKR 11.75 GB ↑ 0 ↓ 0
2024-04-23 magnet Мятежная Луна, часть 2: Оставляющая шрамы / Rebel Moon - Part Two: The Scargiver (2024) WEB-DL-HEVC 2160p | 4K | HDR | P, P2 12.50 GB ↑ 1 ↓ 0

Комментарии


Зарегистрируйтесь чтобы добавить комментарий
Торрент клиент
byTorrent - программа для загрузки торрент-файлов.

Скачать byTorrent.exe (1,5 МБ)

Скачать byTorrent.zip (0,6 МБ)

Поддержи torrent.by
российских рублей
(300 российских рублей это 4$)

Обратная связь rss

End game ©