↑↓torrent.by
Поиск
Логин:  Регистрация
Пароль:

Американская история ужасов / American Horror Story: Delicate [12x01-08 из 09] (2023) WEB-DL 1080p | P | Red Head Sound

download Скачать торрент-файл   magnet Магнитная ссылка Размер: 16.90 GB Добавлен: 2024-04-21 17:00
Пиры будут получены из сети DHT
Последний сидер был замечен 2024-05-19 19:49
Название: Американская история ужасов Оригинальное название: American Horror Story: Delicate Год выхода: 2023 Жанр: Ужасы, фантастика, триллер, драма Режиссер: Брэдли Букер, Альфонсо Гомес-Рехон, Дженнифер Чэмберс Линч В ролях: Эмма Робертс, Мэтт Зукри, Ким Кардашьян, Дэнис О`Харе, Аннабелль Декстер-Джонс, Кара Делевинь, Джули Уайт, Энди Коэн и др. Описание сериала: В 12-м сезоне сериала «Американская история ужасов» представлена новая часть антологии. Эта часть называется Delicate («Деликатный», или «Нежный»). В отличие от предыдущих сезонов, которые представляли собой оригинальные истории, частично основан на романе Даниэль Валентайн «Нежное состояние» (Delicate Condition). История описывается как триллер о женщине, которая выясняет, что некто мешает ей забеременеть. «Нежное состояние» критики сравнивают с культовым романом ужасов «Ребёнок Розмари», но с феминистической составляющей. Страна: США Студия: 20th Century Fox Television, Brad Falchuk Teley-Vision, Ryan Murphy Productions Продолжительность: ~00:45:00 Перевод: Профессиональный (многоголосый, закадровый) Red Head Sound Файл Формат: MKV Качество: WEB-DL (1080p) Видео: 1920x1080 (16:9), 23,976 fps, AVC (х264), High@L4, ~3600 kbps avg, 0.074 bit/pixel Аудио RUS: 48 kHz, AC3, 2/0 (L, R) ch, ~384 kbps avg
[+] MediaInfoОбщее Уникальный идентификатор : 50497262631697452704766402505552933104 (0x25FD6B44F9229CFF1D7A64D0C0F3B0F0) Полное имя : American.Horror.Story.2023.S12E01.WEB-DL.1080p.RHS.mkv Формат : Matroska Версия формата : Version 4 Размер файла : 1,17 Гбайт Продолжительность : 41 м. 32 с. Общий поток : 4 045 Кбит/сек Частота кадров : 23,976 кадра/сек Дата кодирования : 2023-10-08 02:08:58 UTC Программа кодирования : mkvmerge v68.0.0 ('The Curtain') 64-bit Библиотека кодирования : libebml v1.4.2 + libmatroska v1.6.4 Видео Идентификатор : 1 Формат : AVC Формат/Информация : Advanced Video Codec Профиль формата : High@L4 Настройки формата : CABAC / 4 Ref Frames Параметр CABAC формата : Да Параметр RefFrames формата : 4 кадра Идентификатор кодека : V_MPEG4/ISO/AVC Продолжительность : 41 м. 32 с. Битрейт : 3 660 Кбит/сек Ширина : 1 920 пикселей Высота : 1 080 пикселей Соотношение сторон : 16:9 Режим частоты кадров : Постоянный Частота кадров : 23,976 (24000/1001) кадра/сек Цветовое пространство : YUV Субдискретизация насыщенности : 4:2:0 Битовая глубина : 8 бит Тип развёртки : Прогрессивная Бит/(Пиксели*Кадры) : 0.074 Размер потока : 1,06 Гбайт (90%) Default : Да Forced : Нет Аудио Идентификатор : 2 Формат : AC-3 Формат/Информация : Audio Coding 3 Коммерческое название : Dolby Digital Идентификатор кодека : A_AC3 Продолжительность : 41 м. 32 с. Вид битрейта : Постоянный Битрейт : 384 Кбит/сек Каналы : 2 канала Channel layout : L R Частота : 48,0 КГц Частота кадров : 31,250 кадров/сек (1536 SPF) Метод сжатия : С потерями Размер потока : 114 Мбайт (9%) Язык : Russian Default : Да Forced : Нет
[+] Скриншоты

Всего файлов в раздаче: 8 
American.Horror.Story.2023.S12E01.WEB-DL.1080p.RHS.mkv1.17 GB
American.Horror.Story.2023.S12E02.WEB-DL.1080p.RHS.mkv1.27 GB
American.Horror.Story.2023.S12E03.WEB-DL.1080p.RHS.mkv1.21 GB
American.Horror.Story.2023.S12E04.WEB-DL.1080p.RHS.mkv2.62 GB
American.Horror.Story.2023.S12E05.WEB-DL.1080p.RHS.mkv2.59 GB
American.Horror.Story.2023.S12E06.WEB-DL.1080p.RHS.mkv3.08 GB
American.Horror.Story.2023.S12E07.WEB-DL.1080p.RHS.mkv2.63 GB
American.Horror.Story.2023.S12E08.WEB-DL.1080p.RHS.mkv2.32 GB

Похожие раздачи по запросу - Американская
2024-04-29 magnet Американская история ужасов / American Horror Story: Delicate [S12] (2023) WEB-DL 1080p | P | Red Head Sound 17.64 GB ↑ 0 ↓ 0
2024-04-28 magnet Американская история ужасов / American Horror Stories [S12] (2023) WEB-DL 720p | HDrezka Studio 9.17 GB ↑ 0 ↓ 0
2024-04-26 magnet Американская история ужасов / American Horror Story [S12] (2023) WEBRip 1080p от Kerob | L2 12.60 GB ↑ 0 ↓ 0
2024-04-26 magnet Американская история ужасов / American Horror Story [S12] (2023) WEBRip от Kerob | L2 2.34 GB ↑ 0 ↓ 0
2024-04-15 magnet Американская ржавчина / American Rust [S01-02] (2021-2024) WEB-DLRip | LostFilm 14.67 GB ↑ 0 ↓ 0
2024-03-30 magnet Американская ржавчина / American Rust [S02] (2024) WEBRip от Kerob | L2 3.54 GB ↑ 0 ↓ 0

Кто качает (только для создателя раздачи и модераторов): Локальные пиры отсутствуют

Комментарии


Зарегистрируйтесь чтобы добавить комментарий
Торрент клиент
byTorrent - программа для загрузки торрент-файлов.

Скачать byTorrent.exe (1,5 МБ)

Скачать byTorrent.zip (0,6 МБ)

Поддержи torrent.by
российских рублей
(300 российских рублей это 4$)

Обратная связь rss

End game ©