↑↓torrent.by
Поиск
Логин:  Регистрация
Пароль:

Добро пожаловать в семью: Повар из Неаполя (2023) WEB-DLRip-AVC от ExKinoRay

download Скачать торрент-файл   magnet Магнитная ссылка Размер: 1.46 GB Добавлен: 2024-04-21 17:00
Пиры будут получены из сети DHT
Последний сидер был замечен 2024-05-20 05:16
Информация о фильме Название: Добро пожаловать в семью: Повар из Неаполя Год выхода: 2023 Жанр: Комедия, криминал Режиссер: Владимир Зинкевич В ролях: Владимир Сычёв, Светлана Камынина, Кристина Вайнас, Вячеслав Морозов, Торнике Квитатиани, Дмитрий Красилов, Марина Поддубная, Алессандро Демченко, Сергей Иванюк, Игорь Ясулович, Александр Тарасов О фильме: Криминальная комедия является продолжением истории о крестном отце Леониде Бойцове. Освободившись из мест заключения, он все свободное время занимается решением «производственных» вопросов, помогая урегулировать спорные ситуации местным бизнесменам. Так криминальный авторитет оказывается втянут в конфликт между одним из них и поваром Джакомо. В итоге к делу подключается даже итальянская мафия, что грозит обернуться серьезными проблемами. Чтобы избежать таковых, Бойцов соглашается вложить свои средства в общее предприятие — ресторан «Везувий». Однако он даже не подозревает, что попал в ловушку, спасти из которой его сможет только семья. Страна: Россия Студия: Arna Media Продолжительность: 01:28:50 Язык: Русский | Кинопоиск HD Файл Формат: MKV Качество: WEB-DLRip-AVC Видео: MPEG-4 AVC, 1024x428, 1901 Кбит/с Аудио: AC3, 6 ch, 448 Кбит/с Субтитры: Русские (Forced - хардсаб)
[+] MIОбщее Уникальный идентификатор : 42028695253802730933049479390369439261 (0x1F9E6EA954AD11E5EBAFDD8B9C605E1D) Полное имя : D:MOVIESDobro.pozhalovat.v.semyu.II.2023.WEB-DLRip-AVC.ExKinoRay.mkv Формат : Matroska Версия формата : Version 4 Размер файла : 1,46 Гбайт Продолжительность : 1 ч. 28 м. Общий поток : 2 348 Кбит/сек Частота кадров : 24,000 кадра/сек Дата кодирования : 2024-04-21 11:19:41 UTC Программа кодирования : mkvmerge v46.0.0 ('No Deeper Escape') 64-bit Библиотека кодирования : libebml v1.3.10 + libmatroska v1.5.2 Видео Идентификатор : 1 Формат : AVC Формат/Информация : Advanced Video Codec Профиль формата : High@L4.1 Настройки формата : CABAC / 10 Ref Frames Параметр CABAC формата : Да Параметр RefFrames формата : 10 кадров Идентификатор кодека : V_MPEG4/ISO/AVC Продолжительность : 1 ч. 28 м. Битрейт : 1 901 Кбит/сек Ширина : 1 024 пикселя Высота : 428 пикселей Соотношение сторон : 2,40:1 Режим частоты кадров : Постоянный Частота кадров : 24,000 кадра/сек Цветовое пространство : YUV Субдискретизация насыщенности : 4:2:0 Битовая глубина : 8 бит Тип развёртки : Прогрессивная Бит/(Пиксели*Кадры) : 0.181 Размер потока : 1,18 Гбайт (81%) Библиотека кодирования : x264 core 164 r3107 a8b68eb Настройки программы : cabac=1 / ref=10 / deblock=1:-2:-2 / analyse=0x3:0x133 / me=umh / subme=10 / psy=1 / psy_rd=1.05:0.12 / mixed_ref=1 / me_range=32 / chroma_me=1 / trellis=2 / 8x8dct=1 / cqm=0 / deadzone=21,11 / fast_pskip=0 / chroma_qp_offset=-3 / threads=6 / lookahead_threads=1 / sliced_threads=0 / nr=0 / decimate=0 / interlaced=0 / bluray_compat=0 / constrained_intra=0 / bframes=11 / b_pyramid=2 / b_adapt=2 / b_bias=0 / direct=3 / weightb=1 / open_gop=0 / weightp=2 / keyint=240 / keyint_min=24 / scenecut=40 / intra_refresh=0 / rc=2pass / mbtree=0 / bitrate=1901 / ratetol=1.0 / qcomp=0.60 / qpmin=0 / qpmax=69 / qpstep=4 / cplxblur=20.0 / qblur=0.5 / ip_ratio=1.40 / pb_ratio=1.30 / aq=3:1.00 Язык : Russian Default : Да Forced : Нет Цветовой диапазон : Limited Основные цвета : BT.709 Характеристики трансфера : BT.709 Коэффициенты матрицы : BT.709 Аудио Идентификатор : 2 Формат : AC-3 Формат/Информация : Audio Coding 3 Коммерческое название : Dolby Digital Идентификатор кодека : A_AC3 Продолжительность : 1 ч. 28 м. Вид битрейта : Постоянный Битрейт : 448 Кбит/сек Каналы : 6 каналов Channel layout : L R C LFE Ls Rs Частота : 48,0 КГц Частота кадров : 31,250 кадров/сек (1536 SPF) Метод сжатия : С потерями Размер потока : 285 Мбайт (19%) Язык : Russian Service kind : Complete Main Default : Да Forced : Нет Меню 00:00:00.000 : en:Chapter 01 00:05:50.000 : en:Chapter 02 00:11:40.000 : en:Chapter 03 00:17:30.000 : en:Chapter 04 00:23:20.000 : en:Chapter 05 00:29:10.000 : en:Chapter 06 00:35:00.000 : en:Chapter 07 00:40:50.000 : en:Chapter 08 00:46:40.000 : en:Chapter 09 00:52:30.000 : en:Chapter 10 00:58:20.000 : en:Chapter 11 01:04:10.000 : en:Chapter 12 01:10:00.000 : en:Chapter 13 01:15:50.000 : en:Chapter 14 01:21:40.000 : en:Chapter 15 01:27:30.000 : en:Chapter 16
[+] Скриншоты

Всего файлов в раздаче: 1 
Dobro.pozhalovat.v.semyu.II.2023.WEB-DLRip-AVC.ExKinoRay.mkv1.46 GB

Похожие раздачи по запросу - Добро
2024-04-30 magnet Добро пожаловать в семью: Повар из Неаполя (2023) WEB-DLRip от Generalfilm | КПК 336.97 MB ↑ 0 ↓ 0
2024-04-08 magnet Добро пожаловать в семью: Повар из Неаполя (2023) WEB-DL 1080p от DoMiNo | Кинопоиск HD 2.65 GB ↑ 0 ↓ 0
2024-04-07 magnet Добро пожаловать в семью: Повар из Неаполя (2023) WEB-DL 1080p 2.50 GB ↑ 0 ↓ 0
2024-04-02 magnet Добро пожаловать в семью: Повар из Неаполя (2023) WEB-DLRip от MegaPeer 1.46 GB ↑ 1 ↓ 0

Комментарии


Зарегистрируйтесь чтобы добавить комментарий
Торрент клиент
byTorrent - программа для загрузки торрент-файлов.

Скачать byTorrent.exe (1,5 МБ)

Скачать byTorrent.zip (0,6 МБ)

Поддержи torrent.by
российских рублей
(300 российских рублей это 4$)

Обратная связь rss

End game ©