↑↓torrent.by
Поиск
Логин:  Регистрация
Пароль:

Taylor Swift - The Tortured Poets Department: The Anthology [24-bit Hi-Res] (2024) FLAC

download Скачать торрент-файл   magnet Магнитная ссылка Размер: 1.44 GB Добавлен: 2024-04-22 05:00
Пиры будут получены из сети DHT
Последний сидер был замечен 2024-04-26 22:30
Название: The Tortured Poets Department: The Anthology Исполнитель: Taylor Swift Год: 2024 Жанр: Pop Издатель (лейбл): Taylor Swift Продолжительность: 02:02:39 Формат/Кодек: FLAC Тип рипа: Tracks Битрейт аудио: Lossless Разрядность: 24 Bit/48 kHz
[+] Трек-лист 01. Fortnight (00:03:49) 02. The Tortured Poets Department (00:04:53) 03. My Boy Only Breaks His Favorite Toys (00:03:24) 04. Down Bad (00:04:21) 05. So Long, London (00:04:23) 06. But Daddy I Love Him (00:05:40) 07. Fresh Out The Slammer (00:03:31) 08. Florida!!! (00:03:35) 09. Guilty As Sin? (00:04:14) 10. Who’s Afraid Of Little Old Me? (00:05:34) 11. I Can Fix Him (No Really I Can) (00:02:36) 12. Loml (00:04:37) 13. I Can Do It With A Broken Heart (00:03:38) 14. The Smallest Man Who Ever Lived (00:04:06) 15. The Alchemy (00:03:17) 16. Clara Bow (00:03:37) 17. The Black Dog (00:03:59) 18. Imgonnagetyouback (00:03:42) 19. The Albatross (00:03:04) 20. Chloe Or Sam Or Sophia Or Marcus (00:03:33) 21. How Did It End? (00:03:59) 22. So High School (00:03:49) 23. I Hate It Here (00:04:04) 24. Thank You Aimee (00:04:24) 25. I Look In People's Windows (00:02:12) 26. The Prophecy (00:04:10) 27. Cassandra (00:04:00) 28. Peter (00:04:44) 29. The Bolter (00:03:58) 30. Robin (00:04:01) 31. The Manu (00:03:45)
[+] DRM foobar2000 1.5.5 / Замер динамического диапазона (DR) 1.1.1 ------------------------------------------------------------------------------- Анализ: Taylor Swift / The Tortured Poets Department: The Anthology -------------------------------------------------------------------------------- DR Пики RMS Продолжительность трека -------------------------------------------------------------------------------- DR7 -0.30 дБ -9.01 дБ 3:49 01-Fortnight DR5 -0.30 дБ -6.89 дБ 4:53 02-The Tortured Poets Department DR6 -0.30 дБ -7.36 дБ 3:24 03-My Boy Only Breaks His Favorite Toys DR7 -0.20 дБ -8.85 дБ 4:21 04-Down Bad DR6 -0.29 дБ -7.47 дБ 4:23 05-So Long, London DR6 -0.30 дБ -9.48 дБ 5:40 06-But Daddy I Love Him DR7 -0.20 дБ -9.69 дБ 3:31 07-Fresh Out The Slammer DR6 -0.30 дБ -8.06 дБ 3:35 08-Florida!!! DR7 -0.20 дБ -9.65 дБ 4:14 09-Guilty As Sin? DR7 -0.25 дБ -10.57 дБ 5:34 10-Who’s Afraid Of Little Old Me? DR7 -0.20 дБ -10.26 дБ 2:36 11-I Can Fix Him (No Really I Can) DR8 -0.30 дБ -10.09 дБ 4:37 12-Loml DR7 -0.30 дБ -9.11 дБ 3:38 13-I Can Do It With A Broken Heart DR6 -0.30 дБ -8.85 дБ 4:06 14-The Smallest Man Who Ever Lived DR6 -0.20 дБ -8.29 дБ 3:17 15-The Alchemy DR7 -0.30 дБ -8.93 дБ 3:37 16-Clara Bow DR7 -0.30 дБ -10.90 дБ 3:59 17-The Black Dog DR7 -0.30 дБ -9.24 дБ 3:42 18-Imgonnagetyouback DR7 -0.30 дБ -8.87 дБ 3:04 19-The Albatross DR7 -0.20 дБ -8.20 дБ 3:33 20-Chloe Or Sam Or Sophia Or Marcus DR7 -0.29 дБ -8.27 дБ 3:59 21-How Did It End? DR5 -0.20 дБ -6.39 дБ 3:49 22-So High School DR6 -0.30 дБ -8.24 дБ 4:04 23-I Hate It Here DR6 -0.20 дБ -9.75 дБ 4:24 24-Thank You Aimee DR9 -0.30 дБ -12.99 дБ 2:12 25-I Look In People's Windows DR7 -0.30 дБ -8.81 дБ 4:10 26-The Prophecy DR7 -0.20 дБ -8.54 дБ 4:00 27-Cassandra DR6 -0.20 дБ -8.47 дБ 4:44 28-Peter DR7 -0.30 дБ -8.61 дБ 3:58 29-The Bolter DR6 -0.30 дБ -8.42 дБ 4:01 30-Robin DR7 -0.30 дБ -11.05 дБ 3:45 31-The Manu -------------------------------------------------------------------------------- Количество треков: 31 Реальные значения DR: DR7 Частота: 48000 Гц Каналов: 2 Разрядность: 24 Битрейт: 1515 кбит/с Кодек: FLAC ================================================================================
Время раздачи: 24/7 (минимум до появления первых 3-5 скачавших, на раздачи не возвращаюсь) Первое правило участника файлообмена: "Скачал сам - дай скачать другому!"

Всего файлов в раздаче: 32 
01. Fortnight.flac46.31 MB
02. The Tortured Poets Department.flac61.38 MB
03. My Boy Only Breaks His Favorite Toys.flac44.07 MB
04. Down Bad.flac50.99 MB
05. So Long, London.flac50.08 MB
06. But Daddy I Love Him.flac70.83 MB
07. Fresh Out The Slammer.flac41.45 MB
08. Florida!!!.flac44.96 MB
09. Guilty As Sin.flac52.55 MB
10. Who’s Afraid Of Little Old Me.flac65.24 MB
Показать все файлы

Похожие раздачи по запросу - Taylor
2024-05-18 magnet Corey Taylor - CMF2B... or Not 2B (2024) MP3 113.61 MB ↑ 0 ↓ 0
2024-04-22 magnet Taylor Swift - The Tortured Poets Department [The Manuscript Edition] (2024) FLAC 426.79 MB ↑ 0 ↓ 0
2024-04-22 magnet Taylor Swift - The Tortured Poets Department [24-bit Hi-Res, Deluxe] (2024) FLAC 813.34 MB ↑ 0 ↓ 0
2024-04-22 magnet Taylor Swift - The Tortured Poets Department: The Anthology (2024) MP3 282.26 MB ↑ 0 ↓ 0
2024-04-22 magnet Taylor Swift - The Tortured Poets Department: The Anthology (2024) FLAC 766.57 MB ↑ 0 ↓ 0
2023-03-10 magnet Taylor Swift - Midnights [24-bit Hi-Res, 3am Edition] (2022) FLAC 814.23 MB ↑ 1 ↓ 0

Кто качает (только для создателя раздачи и модераторов): Локальные пиры отсутствуют

Комментарии


Зарегистрируйтесь чтобы добавить комментарий
Торрент клиент
byTorrent - программа для загрузки торрент-файлов.

Скачать byTorrent.exe (1,5 МБ)

Скачать byTorrent.zip (0,6 МБ)

Поддержи torrent.by
российских рублей
(300 российских рублей это 4$)

Обратная связь rss

End game ©