↑↓torrent.by
Поиск
Логин:  Регистрация
Пароль:

Nancy Sinatra - How Does That Grab You? [24-bit Hi-Res, Deluxe] (2024) FLAC

download Скачать торрент-файл   magnet Магнитная ссылка Размер: 835.32 MB Добавлен: 2024-04-22 05:00
Пиры будут получены из сети DHT
Последний сидер был замечен 2024-04-26 06:11
Название: How Does That Grab You? (Deluxe) Исполнитель: Nancy Sinatra Год: 2024 Жанр: Country Издатель (лейбл): Boots Enterprises Продолжительность: 00:39:46 Формат/Кодек: FLAC Тип рипа: Tracks Битрейт аудио: Lossless Разрядность: 24 Bit/96 kHz
[+] Трек-лист 01. Not The Lovin' Kind (00:03:09) 02. The Shadow Of Your Smile (00:02:53) 03. Sorry 'bout That (00:03:00) 04. Time (00:03:31) 05. Sand (00:03:47) 06. Cryin' Time (00:03:33) 07. My Baby Cried All Night Long (00:03:04) 08. Let It Be Me (00:03:05) 09. Call Me (00:02:51) 10. How Does That Grab You, Darlin'? (00:02:34) 11. Bang Bang (My Baby Shot Me Down) (00:02:43) 12. Last Of The Secret Agents (00:02:52) 13. If Things Don't Start Picking Up (00:02:44)
[+] DRM foobar2000 1.5.5 / Замер динамического диапазона (DR) 1.1.1 ------------------------------------------------------------------------------- Анализ: Nancy Sinatra / How Does That Grab You? (Deluxe) -------------------------------------------------------------------------------- DR Пики RMS Продолжительность трека -------------------------------------------------------------------------------- DR12 -0.71 дБ -15.76 дБ 3:09 01-Not The Lovin' Kind DR9 -0.71 дБ -13.79 дБ 2:53 02-The Shadow Of Your Smile DR11 -0.70 дБ -13.66 дБ 3:00 03-Sorry 'bout That DR11 -0.71 дБ -14.18 дБ 3:31 04-Time DR11 -0.70 дБ -14.99 дБ 3:47 05-Sand DR11 -0.71 дБ -14.83 дБ 3:33 06-Cryin' Time DR11 -0.70 дБ -14.78 дБ 3:04 07-My Baby Cried All Night Long DR11 -2.07 дБ -16.73 дБ 3:05 08-Let It Be Me DR11 -1.53 дБ -14.91 дБ 2:51 09-Call Me DR12 -0.71 дБ -14.87 дБ 2:34 10-How Does That Grab You, Darlin'? DR9 -0.71 дБ -15.18 дБ 2:43 11-Bang Bang (My Baby Shot Me Down) DR11 -0.70 дБ -13.39 дБ 2:52 12-Last Of The Secret Agents DR10 -3.29 дБ -16.09 дБ 2:44 13-If Things Don't Start Picking Up -------------------------------------------------------------------------------- Количество треков: 13 Реальные значения DR: DR11 Частота: 96000 Гц Каналов: 2 Разрядность: 24 Битрейт: 1710 кбит/с Кодек: FLAC ================================================================================
Время раздачи: 24/7 (минимум до появления первых 3-5 скачавших, на раздачи не возвращаюсь) Первое правило участника файлообмена: "Скачал сам - дай скачать другому!"

Всего файлов в раздаче: 14 
01. Not The Lovin' Kind.flac66.01 MB
02. The Shadow Of Your Smile.flac62.63 MB
03. Sorry 'bout That.flac68.49 MB
04. Time.flac76.27 MB
05. Sand.flac85.52 MB
06. Cryin' Time.flac75.82 MB
07. My Baby Cried All Night Long.flac69.09 MB
08. Let It Be Me.flac66.93 MB
09. Call Me.flac61.95 MB
10. How Does That Grab You, Darlin'.flac56.23 MB
Показать все файлы

Похожие раздачи по запросу - Nancy
2024-04-22 magnet Nancy Sinatra - How Does That Grab You? [Deluxe] (2024) MP3 91.66 MB ↑ 0 ↓ 0
2023-10-03 magnet Nancy Sinatra - Keep Walkin': Singles, Demos & Rarities 1965-1978 (2023) MP3 174.54 MB ↑ 0 ↓ 0

Кто качает (только для создателя раздачи и модераторов): Локальные пиры отсутствуют

Комментарии


Зарегистрируйтесь чтобы добавить комментарий
Торрент клиент
byTorrent - программа для загрузки торрент-файлов.

Скачать byTorrent.exe (1,5 МБ)

Скачать byTorrent.zip (0,6 МБ)

Поддержи torrent.by
российских рублей
(300 российских рублей это 4$)

Обратная связь rss

End game ©