↑↓torrent.by
Поиск
Логин:  Регистрация
Пароль:

Последняя ночь в Тэррас Лэйнс / Последняя ночь в Terrace Lanes / Last Night at Terrace Lanes (2024) WEB-DL 1080p от ELEKTRI4KA | D

download Скачать торрент-файл   magnet Магнитная ссылка Размер: 5.50 GB Добавлен: 2024-04-22 05:00
Пиры будут получены из сети DHT
Последний сидер был замечен 2024-04-23 17:18
«Юная Кеннеди и ее друзья отправляются в боулинг-клуб в последнюю ночь его работы, но попадают в западню к маньякам» Информация о фильме Название: Последняя ночь в Тэррас Лэйнс / Последняя ночь в Terrace Lanes Оригинальное название: Last Night at Terrace Lanes Год выхода: 2024 Жанр: ужасы, триллер, комедия Режиссер: Джэми Нэш В ролях: Кен Арнольд, Джессения Ребекка Бомонт, Франческа Капальди, Джек Франко, Карло Глориосо, Кристофер Инлоу, Рэйвен Джексон, Уэс Джонсон, Сэм Луковски, Крис Райдингс, Миа Рэй Робертс, Анита Шарма, Хиллари Стайер, Тоуанда Андердью, Дэн Веркман О фильме: Юная Кеннеди и ее друзья оказываются в боулинг-клубе «Террас Лэйнс» в последнюю ночь его работы. Но вскоре веселое приключение оборачивается для молодых людей настоящим кошмаром. Неожиданно для компании в заведение вторгается кровожадная группировка в голубых костюмах и белых масках. Испытывая удовлетворение от своей жестокости, незнакомцы начинают преследовать всех находящихся в клубе, убивая каждого встречного. В здании оказывается и отец Кеннеди, который работает здесь ремонтником. Невзирая на то, что школьница всегда стыдилась своего отца, теперь Кеннеди и ее папе придется объединить усилия, чтобы попытаться пережить эту кошмарную ночь. Выпущено: США / Bard Tales Productions, Epic Pictures Продолжительность: 01:15:36 Озвучивание: Дублированное | CPI Films Файл Формат: MKV Качество: WEB-DL 1080p Видео: MPEG-4 AVC, 9510 Kb/s, 1920x1040 Аудио: Russian: AC3, 256 Kb/s (2 ch), English: E-AC3, 640 Kb/s (6 ch) Субтитры: Russian (Full), English Дополнительно: Нет Релиз группы:  | Мы в Telegram:
[+] Инфо-файл:Complete name: Poslednyaya.noch.v.Terras.Leynz.2024.WEB-DL.1080p.ELEKTRI4KA.mkv Format: Matroska Format version: Version 4 File size: 5.50 GiB Duration: 1 h 15 min Overall bit rate: 10.4 Mb/s Movie name: Poslednyaya.noch.v.Terras.Leynz.2024.WEB-DL.1080p.ELEKTRI4KA Encoded date: UTC 2024-04-20 16:49:11 Writing application: mkvmerge v8.3.0 ('Over the Horizon') 64bit Writing library: libebml v1.3.1 + libmatroska v1.4.2 Video ID: 1 Format: AVC Format/Info: Advanced Video Codec Format profile: High@L4 Format settings: CABAC / 4 Ref Frames Format settings, CABAC: Yes Format settings, RefFrames: 4 frames Codec ID: V_MPEG4/ISO/AVC Duration: 1 h 15 min Bit rate mode: Constant Bit rate: 9 510 kb/s Nominal bit rate: 10 000 kb/s Width: 1 920 pixels Height: 1 040 pixels Display aspect ratio: 1.85:1 Frame rate mode: Constant Frame rate: 23.976 (24000/1001) FPS Color space: YUV Chroma subsampling: 4:2:0 Bit depth: 8 bits Scan type: Progressive Bits/(Pixel*Frame): 0.199 Stream size: 5.02 GiB (91%) Default: Yes Forced: No Color range: Limited Color primaries: BT.709 Transfer characteristics: BT.709 Matrix coefficients: BT.709 Audio #1 ID: 2 Format: AC-3 Format/Info: Audio Coding 3 Commercial name: Dolby Digital Codec ID: A_AC3 Duration: 1 h 15 min Bit rate mode: Constant Bit rate: 256 kb/s Channel(s): 2 channels Channel layout: L R Sampling rate: 48.0 kHz Frame rate: 31.250 FPS (1536 SPF) Bit depth: 16 bits Compression mode: Lossy Stream size: 138 MiB (2%) Title: DUB (CPI Films) Language: Russian Service kind: Complete Main Default: Yes Forced: Yes Audio #2 ID: 3 Format: E-AC-3 Format/Info: Enhanced AC-3 Commercial name: Dolby Digital Plus Codec ID: A_EAC3 Duration: 1 h 15 min Bit rate mode: Constant Bit rate: 640 kb/s Channel(s): 6 channels Channel layout: L R C LFE Ls Rs Sampling rate: 48.0 kHz Frame rate: 31.250 FPS (1536 SPF) Compression mode: Lossy Stream size: 346 MiB (6%) Title: Original Language: English Service kind: Complete Main Default: No Forced: No Text #1 ID: 4 Format: UTF-8 Codec ID: S_TEXT/UTF8 Codec ID/Info: UTF-8 Plain Text Duration: 1 h 11 min Bit rate: 70 b/s Count of elements: 995 Stream size: 37.2 KiB (0%) Title: Full Language: Russian Default: No Forced: No Text #2 ID: 5 Format: UTF-8 Codec ID: S_TEXT/UTF8 Codec ID/Info: UTF-8 Plain Text Duration: 1 h 15 min Bit rate: 56 b/s Count of elements: 1403 Stream size: 30.9 KiB (0%) Language: English Default: No Forced: No
[+] Скриншоты

Всего файлов в раздаче: 1 
Poslednyaya.noch.v.Terras.Leynz.2024.WEB-DL.1080p.ELEKTRI4KA.mkv5.50 GB

Похожие раздачи по запросу - Последняя
2024-05-19 magnet Последняя остановка в округе Юма / The Last Stop in Yuma County (2023) WEB-DLRip-AVC от DoMiNo | L 1.49 GB ↑ 0 ↓ 1
2024-05-19 magnet Последняя остановка в округе Юма / The Last Stop in Yuma County (2023) WEB-DL 1080p от JNS82 | L 6.52 GB ↑ 1 ↓ 5
2024-05-09 magnet Алексей Осадчук - Последняя жизнь 4. Пламя Севера (2024) MP3 248.27 MB ↑ 0 ↓ 0
2024-04-22 magnet Последняя ночь в Тэррас Лэйнс / Последняя ночь в Terrace Lanes / Last Night at Terrace Lanes (2024) WEB-DLRip-AVC от New-Team | D 1.46 GB ↑ 0 ↓ 0
2024-04-22 magnet Последняя ночь в Тэррас Лэйнс / Последняя ночь в Terrace Lanes / Last Night at Terrace Lanes (2024) WEB-DLRip от ELEKTRI4KA | D 1.09 GB ↑ 0 ↓ 0
2024-04-22 magnet Последняя ночь в Тэррас Лэйнс / Последняя ночь в Terrace Lanes / Last Night at Terrace Lanes (2024) WEB-DLRip 720p от DoMiNo & селезень | D 2.13 GB ↑ 0 ↓ 0
2024-04-17 magnet Последняя татуировка / The Last Tattoo (1994) DVDRip-AVC от ExKinoRay | P 2.10 GB ↑ 0 ↓ 0

Кто качает (только для создателя раздачи и модераторов): Локальные пиры отсутствуют

Комментарии


Зарегистрируйтесь чтобы добавить комментарий
Торрент клиент
byTorrent - программа для загрузки торрент-файлов.

Скачать byTorrent.exe (1,5 МБ)

Скачать byTorrent.zip (0,6 МБ)

Поддержи torrent.by
российских рублей
(300 российских рублей это 4$)

Обратная связь rss

End game ©