↑↓torrent.by
Поиск
Логин:  Регистрация
Пароль:

Адажио / Adagio (2023) WEB-DL 1080p от JNS82 | L

download Скачать торрент-файл   magnet Магнитная ссылка Размер: 8.04 GB Раздают: 1 Качают: 0 Добавлен: 2024-04-22 05:00
Пиры будут получены из сети DHT
Последний сидер был замечен сегодня в 04:11
Адажио / Adagio Год выпуска: 2023 Выпущено: Италия / AlterEgo, The Apartment, Vision Distribution Жанр: боевик, триллер, криминал Режиссер: Стефано Соллима / Stefano Sollima В ролях: Пьерфранческо Фавино, Лоренцо Адорни, Тони Сервилло, Адриано Джаннини, Валерио Мастандреа, Франческо Ди Лева, Эмилио Франкини, Сильвия Сальватори, Марцио Эль Моэти О фильме: Шестнадцатилетний Мануэль поддается на шантаж и отправляется на вечеринку, чтобы сфотографировать таинственную особу. Обнаружив, что его обманули, он решает сбежать, но оказывается втянутым в историю, которая намного серьезнее и опаснее, чем он ожидал. Продолжительность: 02:07:00 Перевод: Любительский (многоголосый, закадровый) | Синема УС Субтитры: Нет. Автор релиза: JNS82. Формат: MKV Качество: WEB-DL 1080p Видео: MPEG-4 AVC, x264, 8226 Кбит/с, (2,40:1), 1920x800, 24,000 fps Аудио #1: 48 kHz, AC3 Dolby Digital, 2/0 (L,R) ch, ~ 192 kbps | RUS | Аудио #2: 48 kHz, E-AC3 Dolby Digital, 3/2 (L,C,R,l,r) + LFE ch, ~ 640 kbps | ITA |
[+] MediaInfoОбщее Уникальный идентификатор : 134485001665521474596510758945987217371 (0x652CDE8270B1001C5083873D9F7BC7DB) Полное имя : D:TorrentsAdagio.2023.iTA.WEBDL.1080p_от_JNS82.mkv Формат : Matroska Версия формата : Version 4 Размер файла : 8,04 Гбайт Продолжительность : 2 ч. 7 мин. Общий битрейт : 9 060 Кбит/сек Частота кадров : 24,000 кадра/сек Название фильма : Adagio.2023.iTA.WEBDL.1080p_от_JNS82 Дата кодирования : 2024-04-21 15:58:02 UTC Программа кодирования : mkvmerge v79.0 ('Funeral Pyres') 64-bit Библиотека кодирования : libebml v1.4.4 + libmatroska v1.7.1 Видео Идентификатор : 1 Формат : AVC Формат/Информация : Advanced Video Codec Профиль формата : High@L4 Настройки формата : 4 Ref Frames Параметр CABAC формата : Нет Параметр RefFrames формата : 4 кадра Идентификатор кодека : V_MPEG4/ISO/AVC Продолжительность : 2 ч. 7 мин. Битрейт : 8 226 Кбит/сек Ширина : 1 920 пикселей Высота : 800 пикселей Соотношение сторон дисплея : 2,40:1 Режим частоты кадров : Постоянный Частота кадров : 24,000 кадра/сек Цветовое пространство : YUV Цветовая субдискретизация : 4:2:0 Битовая глубина : 8 бит Тип развёртки : Прогрессивная Бит/(Пиксели*Кадры) : 0.223 Размер потока : 7,30 Гбайт (91%) Библиотека кодирования : x264 core 164 r3106 eaa68fa Параметры библиотеки кодирования : cabac=0 / ref=2 / deblock=1:0:0 / analyse=0x3:0x113 / me=hex / subme=4 / psy=1 / psy_rd=1.00:0.15 / mixed_ref=0 / me_range=16 / chroma_me=1 / trellis=1 / 8x8dct=1 / cqm=0 / deadzone=21,11 / fast_pskip=1 / chroma_qp_offset=-1 / threads=24 / lookahead_threads=6 / sliced_threads=0 / nr=0 / decimate=1 / interlaced=0 / bluray_compat=0 / constrained_intra=0 / bframes=3 / b_pyramid=2 / b_adapt=1 / b_bias=0 / direct=1 / weightb=0 / open_gop=0 / weightp=0 / keyint=240 / keyint_min=24 / scenecut=40 / intra_refresh=0 / rc_lookahead=20 / rc=2pass / mbtree=1 / bitrate=8226 / ratetol=1.0 / qcomp=0.60 / qpmin=0 / qpmax=69 / qpstep=4 / cplxblur=20.0 / qblur=0.5 / ip_ratio=1.40 / aq=1:1.00 По умолчанию : Да Принудительно : Нет Аудио #1 Идентификатор : 2 Формат : AC-3 Формат/Информация : Audio Coding 3 Коммерческое название : Dolby Digital Идентификатор кодека : A_AC3 Продолжительность : 2 ч. 7 мин. Вид битрейта : Постоянный Битрейт : 192 Кбит/сек Канал(-ы) : 2 канала Расположение каналов : L R Частота дискретизации : 48,0 КГц Частота кадров : 31,250 кадров/сек (1536 SPF) Метод сжатия : С потерями Размер потока : 174 Мбайт (2%) Заголовок : MVO - Синема УС Язык : Русский Вид сервиса : Complete Main По умолчанию : Да Принудительно : Нет Нормализация звука речи : -31 dB dialnorm_Average : -31 dB dialnorm_Minimum : -31 dB dialnorm_Maximum : -31 dB Аудио #2 Идентификатор : 3 Формат : E-AC-3 Формат/Информация : Enhanced AC-3 Коммерческое название : Dolby Digital Plus Идентификатор кодека : A_EAC3 Продолжительность : 2 ч. 7 мин. Вид битрейта : Постоянный Битрейт : 640 Кбит/сек Канал(-ы) : 6 каналов Расположение каналов : L R C LFE Ls Rs Частота дискретизации : 48,0 КГц Частота кадров : 31,250 кадров/сек (1536 SPF) Метод сжатия : С потерями Размер потока : 581 Мбайт (7%) Заголовок : Original Язык : Итальянский Вид сервиса : Complete Main По умолчанию : Нет Принудительно : Нет Нормализация звука речи : -31 dB compr : -0.28 dB dialnorm_Average : -31 dB dialnorm_Minimum : -31 dB dialnorm_Maximum : -31 dB

Всего файлов в раздаче: 1 
Adagio.2023.iTA.WEBDL.1080p_от_JNS82.mkv8.04 GB

Комментарии


Зарегистрируйтесь чтобы добавить комментарий
Торрент клиент
byTorrent - программа для загрузки торрент-файлов.

Скачать byTorrent.exe (1,5 МБ)

Скачать byTorrent.zip (0,6 МБ)

Поддержи torrent.by
российских рублей
(300 российских рублей это 4$)

Обратная связь rss

End game ©