↑↓torrent.by
Поиск
Логин:  Регистрация
Пароль:

Хряк / Buta (2012) HDTVRip 720p | D | ZeroVoice

download Скачать торрент-файл   magnet Магнитная ссылка Размер: 308.00 MB Добавлен: 2024-04-22 11:00
Пиры будут получены из сети DHT
Последний сидер был замечен 2024-05-06 22:26
Год выпуска: 2012 Страна: Япония Жанр: приключения, комедия Продолжительность: 00:24:56 Перевод: Дублированный (неофициальный) | ZeroVoice Режиссер: Томонага Кадзухидэ В ролях: Масаки Тэрасома, Миюки Савасиро, Сацуки Юкино, Кацуюки Конъиси, Хатано Ватару, Кэнта Мацумото Студия: Telecom Animation Film Описание: Эта удивительная история о карте сокровищ которая уже не одно поколение храниться в семье нашего героя. Но, что делать, если её, самое дорогое, что есть в семье нашего маленького героя, крадут пираты. Наш отчаянный герой не желает отдавать пиратам своё наследство отчаянно сражается за него. Пиратам ничего не остается как похитить его вместе с картой сокровищ. Сможет ли он вернуть своё сокровище и вернуться домой? Оригинальная история, снятая молодым режиссером Томонага Кадзухидэ в рамках проекта Young Animator Training Project. Семпл Кодек: AVC Качество: HDTVRip 720p Видео: 1280x720 | 16:9 | 23.97 fps | 1529 kb/s | 10 bit Аудио : AC3 | 48khz | 2ch | 192 kb/s | ZeroVoice
[+] MI General Unique ID : 110981735174563015149402343449851813698 (0x537E4E012A34EEC2D8DC102361B35F42) Complete name : E:qbitButaBUTA.mkv Format : Matroska Format version : Version 4 File size : 308 MiB Duration : 24 min 57 s Overall bit rate : 1 725 kb/s Encoded date : UTC 2024-04-20 07:53:28 Writing application : mkvmerge v67.0.0 ('Under Stars') 64-bit Writing library : libebml v1.4.2 + libmatroska v1.6.4 Attachments : GosmickSans.ttf / nyala.ttf / edo.ttf / Glenns_Hand.ttf Video ID : 1 Format : AVC Format/Info : Advanced Video Codec Format profile : High 10@L5.1 Format settings : CABAC / 16 Ref Frames Format settings, CABAC : Yes Format settings, Reference frames : 16 frames Codec ID : V_MPEG4/ISO/AVC Duration : 24 min 56 s Bit rate : 1 529 kb/s Width : 1 280 pixels Height : 720 pixels Display aspect ratio : 16:9 Frame rate mode : Constant Frame rate : 23.976 (24000/1001) FPS Color space : YUV Chroma subsampling : 4:2:0 Bit depth : 10 bits Scan type : Progressive Bits/(Pixel*Frame) : 0.069 Stream size : 273 MiB (89%) Title : BUTA Writing library : x264 core 122 r2183+1 380b49f Encoding settings : cabac=1 / ref=16 / deblock=1:1:1 / analyse=0x3:0x133 / me=umh / subme=10 / psy=1 / psy_rd=0.40:0.10 / mixed_ref=1 / me_range=24 / chroma_me=1 / trellis=2 / 8x8dct=1 / cqm=0 / deadzone=21,11 / fast_pskip=1 / chroma_qp_offset=-3 / threads=12 / sliced_threads=0 / nr=0 / decimate=1 / interlaced=0 / bluray_compat=0 / constrained_intra=0 / bframes=10 / b_pyramid=2 / b_adapt=2 / b_bias=0 / direct=3 / weightb=1 / open_gop=0 / weightp=2 / keyint=250 / keyint_min=23 / scenecut=40 / intra_refresh=0 / rc_lookahead=60 / rc=crf / mbtree=1 / crf=18.0 / qcomp=0.60 / qpmin=0 / qpmax=81 / qpstep=4 / ip_ratio=1.40 / aq=1:0.60 Language : Japanese Default : Yes Forced : No Color range : Limited Matrix coefficients : BT.709 Audio ID : 2 Format : AC-3 Format/Info : Audio Coding 3 Commercial name : Dolby Digital Codec ID : A_AC3 Duration : 24 min 57 s Bit rate mode : Constant Bit rate : 192 kb/s Channel(s) : 2 channels Channel layout : L R Sampling rate : 48.0 kHz Frame rate : 31.250 FPS (1536 SPF) Compression mode : Lossy Stream size : 34.3 MiB (11%) Title : ZeroVoice Service kind : Complete Main Default : Yes Forced : No
[+] Скриншоты

Всего файлов в раздаче: 1 
BUTA.mkv308.00 MB

Кто качает (только для создателя раздачи и модераторов): Локальные пиры отсутствуют

Комментарии


Зарегистрируйтесь чтобы добавить комментарий
Торрент клиент
byTorrent - программа для загрузки торрент-файлов.

Скачать byTorrent.exe (1,5 МБ)

Скачать byTorrent.zip (0,6 МБ)

Поддержи torrent.by
российских рублей
(300 российских рублей это 4$)

Обратная связь rss

End game ©